  0
SECTION
  2
HEADER
  9
$ACADVER
  1
AC1009
  9
$DWGCODEPAGE
  3
ansi_1252
  9
$INSBASE
 10
0.0
 20
0.0
 30
0.0
  9
$EXTMIN
 10
1.000000000000000E+20
 20
1.000000000000000E+20
 30
1.000000000000000E+20
  9
$EXTMAX
 10
-1.000000000000000E+20
 20
-1.000000000000000E+20
 30
-1.000000000000000E+20
  9
$LIMMIN
 10
0.0
 20
0.0
  9
$LIMMAX
 10
12.0
 20
9.0
  9
$ORTHOMODE
 70
     0
  9
$REGENMODE
 70
     1
  9
$FILLMODE
 70
     1
  9
$QTEXTMODE
 70
     0
  9
$MIRRTEXT
 70
     1
  9
$DRAGMODE
 70
     2
  9
$LTSCALE
 40
1.0
  9
$OSMODE
 70
    37
  9
$ATTMODE
 70
     1
  9
$TEXTSIZE
 40
0.2
  9
$TRACEWID
 40
0.05
  9
$TEXTSTYLE
  7
STANDARD
  9
$CLAYER
  8
DEFAULT
  9
$CELTYPE
  6
BYLAYER
  9
$CECOLOR
 62
   256
  9
$DIMSCALE
 40
1.0
  9
$DIMASZ
 40
0.18
  9
$DIMEXO
 40
0.0625
  9
$DIMDLI
 40
0.38
  9
$DIMRND
 40
0.0
  9
$DIMDLE
 40
0.0
  9
$DIMEXE
 40
0.18
  9
$DIMTP
 40
0.0
  9
$DIMTM
 40
0.0
  9
$DIMTXT
 40
0.18
  9
$DIMCEN
 40
0.09
  9
$DIMTSZ
 40
0.0
  9
$DIMTOL
 70
     0
  9
$DIMLIM
 70
     0
  9
$DIMTIH
 70
     1
  9
$DIMTOH
 70
     1
  9
$DIMSE1
 70
     0
  9
$DIMSE2
 70
     0
  9
$DIMTAD
 70
     0
  9
$DIMZIN
 70
     0
  9
$DIMBLK
  1

  9
$DIMASO
 70
     1
  9
$DIMSHO
 70
     1
  9
$DIMPOST
  1

  9
$DIMAPOST
  1

  9
$DIMALT
 70
     0
  9
$DIMALTD
 70
     2
  9
$DIMALTF
 40
25.4
  9
$DIMLFAC
 40
1.0
  9
$DIMTOFL
 70
     0
  9
$DIMTVP
 40
0.0
  9
$DIMTIX
 70
     0
  9
$DIMSOXD
 70
     0
  9
$DIMSAH
 70
     0
  9
$DIMBLK1
  1

  9
$DIMBLK2
  1

  9
$DIMSTYLE
  2
STANDARD_ACAD
  9
$DIMCLRD
 70
     0
  9
$DIMCLRE
 70
     0
  9
$DIMCLRT
 70
     0
  9
$DIMTFAC
 40
1.0
  9
$DIMGAP
 40
0.09
  9
$LUNITS
 70
     2
  9
$LUPREC
 70
     3
  9
$SKETCHINC
 40
0.1
  9
$FILLETRAD
 40
0.5
  9
$AUNITS
 70
     0
  9
$AUPREC
 70
     0
  9
$MENU
  1
.
  9
$ELEVATION
 40
0.0
  9
$PELEVATION
 40
0.0
  9
$THICKNESS
 40
0.0
  9
$LIMCHECK
 70
     0
  9
$CHAMFERA
 40
0.0
  9
$CHAMFERB
 40
0.0
  9
$SKPOLY
 70
     0
  9
$TDCREATE
 40
2458446.769939166
  9
$TDUPDATE
 40
2458446.770096111
  9
$TDINDWG
 40
0.0000000116
  9
$TDUSRTIMER
 40
0.0000000116
  9
$USRTIMER
 70
     1
  9
$ANGBASE
 50
0.0
  9
$ANGDIR
 70
     0
  9
$PDMODE
 70
     0
  9
$PDSIZE
 40
0.0
  9
$PLINEWID
 40
0.0
  9
$COORDS
 70
     1
  9
$SPLFRAME
 70
     0
  9
$SPLINETYPE
 70
     6
  9
$SPLINESEGS
 70
     8
  9
$ATTDIA
 70
     0
  9
$ATTREQ
 70
     1
  9
$HANDLING
 70
     1
  9
$HANDSEED
  5
785
  9
$SURFTAB1
 70
     6
  9
$SURFTAB2
 70
     6
  9
$SURFTYPE
 70
     6
  9
$SURFU
 70
     6
  9
$SURFV
 70
     6
  9
$UCSNAME
  2

  9
$UCSORG
 10
0.0
 20
0.0
 30
0.0
  9
$UCSXDIR
 10
1.0
 20
0.0
 30
0.0
  9
$UCSYDIR
 10
0.0
 20
1.0
 30
0.0
  9
$PUCSNAME
  2

  9
$PUCSORG
 10
0.0
 20
0.0
 30
0.0
  9
$PUCSXDIR
 10
1.0
 20
0.0
 30
0.0
  9
$PUCSYDIR
 10
0.0
 20
1.0
 30
0.0
  9
$USERI1
 70
     0
  9
$USERI2
 70
     0
  9
$USERI3
 70
     0
  9
$USERI4
 70
     0
  9
$USERI5
 70
     0
  9
$USERR1
 40
0.0
  9
$USERR2
 40
0.0
  9
$USERR3
 40
0.0
  9
$USERR4
 40
0.0
  9
$USERR5
 40
0.0
  9
$WORLDVIEW
 70
     1
  9
$SHADEDGE
 70
     3
  9
$SHADEDIF
 70
    70
  9
$TILEMODE
 70
     1
  9
$MAXACTVP
 70
    64
  9
$PLIMCHECK
 70
     0
  9
$PEXTMIN
 10
1.000000000000000E+20
 20
1.000000000000000E+20
 30
1.000000000000000E+20
  9
$PEXTMAX
 10
-1.000000000000000E+20
 20
-1.000000000000000E+20
 30
-1.000000000000000E+20
  9
$PLIMMIN
 10
0.0
 20
0.0
  9
$PLIMMAX
 10
12.0
 20
9.0
  9
$UNITMODE
 70
     0
  9
$VISRETAIN
 70
     1
  9
$PLINEGEN
 70
     0
  9
$PSLTSCALE
 70
     1
  0
ENDSEC
  0
SECTION
  2
TABLES
  0
TABLE
  2
VPORT
 70
     1
  0
VPORT
  2
*ACTIVE
 70
     0
 10
0.0
 20
0.0
 11
1.0
 21
1.0
 12
10.42990654205607
 22
4.5
 13
0.0
 23
0.0
 14
0.5
 24
0.5
 15
0.5
 25
0.5
 16
0.0
 26
0.0
 36
1.0
 17
0.0
 27
0.0
 37
0.0
 40
9.0
 41
1.972972972850329
 42
50.0
 43
0.0
 44
0.0
 50
0.0
 51
0.0
 71
     0
 72
   100
 73
     1
 74
     3
 75
     0
 76
     0
 77
     0
 78
     0
  0
ENDTAB
  0
TABLE
  2
LTYPE
 70
     2
  0
LTYPE
  2
CONTINUOUS
 70
     0
  3
Solid line
 72
    65
 73
     0
 40
0.0
  0
LTYPE
  2
DASHDOT
 70
     0
  3

 72
    65
 73
     4
 40
6.0
 49
4.0
 49
-1.0
 49
0.0
 49
-1.0
  0
ENDTAB
  0
TABLE
  2
LAYER
 70
     3
  0
LAYER
  2
0
 70
     0
 62
     7
  6
CONTINUOUS
  0
LAYER
  2
DEFAULT
 70
     0
 62
     7
  6
CONTINUOUS
  0
LAYER
  2
DEFPOINTS
 70
     0
 62
     7
  6
CONTINUOUS
  0
ENDTAB
  0
TABLE
  2
STYLE
 70
     3
  0
STYLE
  2
STANDARD
 70
     0
 40
0.0
 41
1.0
 50
0.0
 71
     0
 42
0.2
  3
txt
  4

  0
STYLE
  2
TIMES_NEW_ROMAN_REGULAR
 70
     0
 40
0.0
 41
1.0
 50
0.0
 71
     0
 42
0.2
  3
times.ttf
  4

  0
STYLE
  2
ARIAL_REGULAR
 70
     0
 40
0.0
 41
1.0
 50
0.0
 71
     0
 42
0.2
  3
arial.ttf
  4

  0
ENDTAB
  0
TABLE
  2
VIEW
 70
     0
  0
ENDTAB
  0
TABLE
  2
UCS
 70
     0
  0
ENDTAB
  0
TABLE
  2
APPID
 70
     1
  0
APPID
  2
ACAD
 70
     0
  0
ENDTAB
  0
TABLE
  2
DIMSTYLE
 70
     2
  0
DIMSTYLE
  2
STANDARD_ACAD
 70
     0
  3

  4

  5

  6

  7

 40
1.0
 41
0.18
 42
0.0625
 43
0.38
 44
0.18
 45
0.0
 46
0.0
 47
0.0
 48
0.0
140
0.18
141
0.09
142
0.0
143
25.4
144
1.0
145
0.0
146
1.0
147
0.09
 71
     0
 72
     0
 73
     1
 74
     1
 75
     0
 76
     0
 77
     0
 78
     0
170
     0
171
     2
172
     0
173
     0
174
     0
175
     0
176
     0
177
     0
178
     0
  0
DIMSTYLE
  2
DEFAULT
 70
     0
  3

  4

  5

  6

  7

 40
1.0
 41
1.0
 42
0.5
 43
0.38
 44
0.5
 45
0.0
 46
0.0
 47
0.0
 48
0.0
140
1.0
141
0.5
142
0.0
143
25.4
144
1.0
145
0.0
146
1.0
147
0.25
 71
     0
 72
     0
 73
     0
 74
     1
 75
     0
 76
     0
 77
     1
 78
     1
170
     0
171
     2
172
     0
173
     0
174
     1
175
     0
176
     0
177
     0
178
     0
  0
ENDTAB
  0
ENDSEC
  0
SECTION
  2
BLOCKS
  0
BLOCK
  8
0
  2
$MODEL_SPACE
 70
     0
 10
0.0
 20
0.0
 30
0.0
  3
$MODEL_SPACE
  1

  0
ENDBLK
  5
21
  8
0
  0
BLOCK
 67
     1
  8
0
  2
$PAPER_SPACE
 70
     0
 10
0.0
 20
0.0
 30
0.0
  3
$PAPER_SPACE
  1

  0
ENDBLK
  5
1D
 67
     1
  8
0
  0
BLOCK
  8
0
  2
*D1
 70
     1
 10
0.0
 20
0.0
 30
0.0
  3
*D1
  1

  0
LINE
  5
39A
  8
DEFAULT
 62
     0
 10
5246.574008765469
 20
20.70623792449471
 30
0.0
 11
5245.265587011422
 21
16.74469497450606
 31
0.0
  0
LINE
  5
39B
  8
DEFAULT
 62
     0
 10
5251.407751309406
 20
19.10974535132285
 30
0.0
 11
5250.099329555358
 21
15.14820240133438
 31
0.0
  0
LINE
  5
39C
  8
DEFAULT
 62
     0
 10
5246.371945234998
 20
16.90585167193089
 30
0.0
 11
5249.306589263272
 21
15.93659496174067
 31
0.0
  0
SOLID
  5
39D
  8
DEFAULT
 62
     0
 10
5246.424214890247
 20
17.0641098815694
 30
0.0
 11
5246.319675579749
 21
16.74759346229239
 31
0.0
 12
5245.422395977167
 22
17.21946960342164
 32
0.0
 13
5245.422395977167
 23
17.21946960342164
 33
0.0
  0
SOLID
  5
39E
  8
DEFAULT
 62
     0
 10
5249.254319608023
 20
15.77833675210216
 30
0.0
 11
5249.358858918521
 21
16.09485317137917
 31
0.0
 12
5250.256138521103
 22
15.62297703024992
 32
0.0
 13
5250.256138521103
 23
15.62297703024992
 33
0.0
  0
TEXT
  5
39F
  8
DEFAULT
  6
CONTINUOUS
 62
     0
 10
5247.553628575547
 20
16.79675034402658
 30
0.0
 40
1.0
  1
5
 50
341.722600270723
  7
ARIAL_REGULAR
  0
POINT
  5
3A0
  8
DEFPOINTS
 62
     0
 10
5246.730817731214
 20
21.18101255341029
 30
0.0
  0
POINT
  5
3A1
  8
DEFPOINTS
 62
     0
 10
5251.564560275151
 20
19.5845199802384
 30
0.0
  0
POINT
  5
3A2
  8
DEFPOINTS
 62
     0
 10
5250.256138521103
 20
15.62297703024992
 30
0.0
  0
ENDBLK
  5
399
  8
0
  0
BLOCK
  8
0
  2
*D2
 70
     1
 10
0.0
 20
0.0
 30
0.0
  3
*D2
  1

  0
LINE
  5
75C
  8
DEFAULT
 62
     0
 10
5187.585746005413
 20
19.64569657359565
 30
0.0
 11
5200.716643908366
 21
19.64569657359565
 31
0.0
  0
LINE
  5
75D
  8
DEFAULT
 62
     0
 10
5187.585746005413
 20
59.64569657359565
 30
0.0
 11
5200.716643908366
 21
59.64569657359565
 31
0.0
  0
LINE
  5
75E
  8
DEFAULT
 62
     0
 10
5200.216643908366
 20
20.64569657359565
 30
0.0
 11
5200.216643908366
 21
58.64569657359565
 31
0.0
  0
SOLID
  5
75F
  8
DEFAULT
 62
     0
 10
5200.049977241699
 20
20.64569657359565
 30
0.0
 11
5200.383310575033
 21
20.64569657359565
 31
0.0
 12
5200.216643908366
 22
19.64569657359565
 32
0.0
 13
5200.216643908366
 23
19.64569657359565
 33
0.0
  0
SOLID
  5
760
  8
DEFAULT
 62
     0
 10
5200.383310575033
 20
58.64569657359565
 30
0.0
 11
5200.049977241699
 21
58.64569657359565
 31
0.0
 12
5200.216643908366
 22
59.64569657359565
 32
0.0
 13
5200.216643908366
 23
59.64569657359565
 33
0.0
  0
TEXT
  5
761
  8
DEFAULT
  6
CONTINUOUS
 62
     0
 10
5199.947643908366
 20
38.89419657359576
 30
0.0
 40
1.0
  1
40
 50
90.0
  7
ARIAL_REGULAR
  0
POINT
  5
762
  8
DEFPOINTS
 62
     0
 10
5187.085746005413
 20
19.64569657359565
 30
0.0
  0
POINT
  5
763
  8
DEFPOINTS
 62
     0
 10
5187.085746005413
 20
59.64569657359565
 30
0.0
  0
POINT
  5
764
  8
DEFPOINTS
 62
     0
 10
5200.216643908366
 20
59.64569657359565
 30
0.0
  0
ENDBLK
  5
75B
  8
0
  0
BLOCK
  8
0
  2
*D3
 70
     1
 10
0.0
 20
0.0
 30
0.0
  3
*D3
  1

  0
LINE
  5
769
  8
DEFAULT
 62
     0
 10
5183.280660470796
 20
19.64569657359565
 30
0.0
 11
5172.567700666767
 21
19.64569657359565
 31
0.0
  0
LINE
  5
76A
  8
DEFAULT
 62
     0
 10
5183.280660470796
 20
29.64569657359565
 30
0.0
 11
5172.567700666767
 21
29.64569657359565
 31
0.0
  0
LINE
  5
76B
  8
DEFAULT
 62
     0
 10
5173.067700666767
 20
20.64569657359565
 30
0.0
 11
5173.067700666767
 21
28.64569657359565
 31
0.0
  0
SOLID
  5
76C
  8
DEFAULT
 62
     0
 10
5172.9010340001
 20
20.64569657359565
 30
0.0
 11
5173.234367333434
 21
20.64569657359565
 31
0.0
 12
5173.067700666767
 22
19.64569657359565
 32
0.0
 13
5173.067700666767
 23
19.64569657359565
 33
0.0
  0
SOLID
  5
76D
  8
DEFAULT
 62
     0
 10
5173.234367333434
 20
28.64569657359565
 30
0.0
 11
5172.9010340001
 21
28.64569657359565
 31
0.0
 12
5173.067700666767
 22
29.64569657359565
 32
0.0
 13
5173.067700666767
 23
29.64569657359565
 33
0.0
  0
TEXT
  5
76E
  8
DEFAULT
  6
CONTINUOUS
 62
     0
 10
5172.798700666767
 20
23.82719657359576
 30
0.0
 40
1.0
  1
10
 50
90.0
  7
ARIAL_REGULAR
  0
POINT
  5
76F
  8
DEFPOINTS
 62
     0
 10
5183.780660470796
 20
19.64569657359565
 30
0.0
  0
POINT
  5
770
  8
DEFPOINTS
 62
     0
 10
5183.780660470796
 20
29.64569657359565
 30
0.0
  0
POINT
  5
771
  8
DEFPOINTS
 62
     0
 10
5173.067700666767
 20
29.64569657359565
 30
0.0
  0
ENDBLK
  5
768
  8
0
  0
ENDSEC
  0
SECTION
  2
ENTITIES
  0
LINE
  5
6E
  8
0
 62
     3
 10
5153.544893090068
 20
-402.7682619903325
 30
0.0
 11
5258.544893090068
 21
-402.7682619903325
 31
0.0
  0
LINE
  5
6F
  8
0
 62
     3
 10
5258.544893090068
 20
-402.7682619903325
 30
0.0
 11
5258.544893090068
 21
-377.7682619903325
 31
0.0
  0
LINE
  5
70
  8
0
 62
     3
 10
5258.544893090068
 20
-377.7682619903325
 30
0.0
 11
5153.544893090068
 21
-377.7682619903325
 31
0.0
  0
LINE
  5
71
  8
0
 62
     3
 10
5153.544893090068
 20
-377.7682619903325
 30
0.0
 11
5153.544893090068
 21
-402.7682619903325
 31
0.0
  0
LINE
  5
73
  8
DEFAULT
 62
     1
 10
5190.951637047236
 20
18.80356352177873
 30
0.0
 11
5195.812773414711
 21
18.34742383253627
 31
0.0
  0
LINE
  5
74
  8
DEFAULT
 62
     1
 10
5195.812773414711
 20
18.34742383253627
 30
0.0
 11
5190.951637047236
 21
17.89128414329382
 31
0.0
  0
LINE
  5
75
  8
DEFAULT
 62
     1
 10
5190.951637047236
 20
17.89128414329382
 30
0.0
 11
5195.812773414711
 21
17.43514445405137
 31
0.0
  0
LINE
  5
76
  8
DEFAULT
 62
     1
 10
5195.812773414711
 20
17.43514445405137
 30
0.0
 11
5190.951637047236
 21
16.97900476480892
 31
0.0
  0
LINE
  5
77
  8
DEFAULT
 62
     1
 10
5190.951637047236
 20
16.97900476480892
 30
0.0
 11
5195.812773414711
 21
16.52286507556646
 31
0.0
  0
LINE
  5
78
  8
DEFAULT
 62
     1
 10
5195.812773414711
 20
16.52286507556646
 30
0.0
 11
5190.951637047236
 21
16.06672538632401
 31
0.0
  0
LINE
  5
79
  8
DEFAULT
 62
     1
 10
5190.951637047236
 20
16.06672538632401
 30
0.0
 11
5195.812773414711
 21
15.61058569708156
 31
0.0
  0
LINE
  5
7A
  8
DEFAULT
 62
     1
 10
5195.812773414711
 20
15.61058569708156
 30
0.0
 11
5190.951637047236
 21
15.1544460078391
 31
0.0
  0
LINE
  5
7B
  8
DEFAULT
 62
     1
 10
5190.951637047236
 20
15.1544460078391
 30
0.0
 11
5195.812773414711
 21
14.69830631859665
 31
0.0
  0
LINE
  5
7C
  8
DEFAULT
 62
     1
 10
5195.812773414711
 20
14.69830631859665
 30
0.0
 11
5190.951637047236
 21
14.2421666293542
 31
0.0
  0
LINE
  5
7D
  8
DEFAULT
 62
     1
 10
5190.951637047236
 20
14.2421666293542
 30
0.0
 11
5195.812773414711
 21
13.78602694011174
 31
0.0
  0
LINE
  5
7E
  8
DEFAULT
 62
     1
 10
5195.812773414711
 20
13.78602694011174
 30
0.0
 11
5190.951637047236
 21
13.32988725086929
 31
0.0
  0
LINE
  5
7F
  8
DEFAULT
 62
     1
 10
5190.951637047236
 20
13.32988725086929
 30
0.0
 11
5195.812773414711
 21
12.87374756162684
 31
0.0
  0
LINE
  5
80
  8
DEFAULT
 62
     1
 10
5195.812773414711
 20
12.87374756162684
 30
0.0
 11
5190.951637047236
 21
12.41760787238439
 31
0.0
  0
LINE
  5
81
  8
DEFAULT
 62
     1
 10
5190.951637047236
 20
12.41760787238439
 30
0.0
 11
5195.812773414711
 21
11.96146818314193
 31
0.0
  0
LINE
  5
82
  8
DEFAULT
 62
     1
 10
5195.812773414711
 20
11.96146818314193
 30
0.0
 11
5190.951637047236
 21
11.50532849389948
 31
0.0
  0
LINE
  5
83
  8
DEFAULT
 62
     1
 10
5190.951637047236
 20
11.50532849389948
 30
0.0
 11
5195.812773414711
 21
11.04918880465703
 31
0.0
  0
LINE
  5
84
  8
DEFAULT
 62
     1
 10
5195.812773414711
 20
11.04918880465703
 30
0.0
 11
5190.951637047236
 21
10.59304911541457
 31
0.0
  0
LINE
  5
85
  8
DEFAULT
 62
     1
 10
5190.951637047236
 20
10.59304911541457
 30
0.0
 11
5195.812773414711
 21
10.13690942617212
 31
0.0
  0
LINE
  5
86
  8
DEFAULT
 62
     1
 10
5195.812773414711
 20
10.13690942617212
 30
0.0
 11
5190.951637047236
 21
9.680769736929669
 31
0.0
  0
LINE
  5
87
  8
DEFAULT
 62
     1
 10
5190.951637047236
 20
9.680769736929669
 30
0.0
 11
5195.812773414711
 21
9.224630047687217
 31
0.0
  0
LINE
  5
88
  8
DEFAULT
 62
     1
 10
5195.812773414711
 20
9.224630047687217
 30
0.0
 11
5190.951637047236
 21
8.768490358444764
 31
0.0
  0
LINE
  5
89
  8
DEFAULT
 62
     1
 10
5190.951637047236
 20
8.768490358444764
 30
0.0
 11
5195.812773414711
 21
8.31235066920231
 31
0.0
  0
LINE
  5
8A
  8
DEFAULT
 62
     1
 10
5195.812773414711
 20
8.31235066920231
 30
0.0
 11
5190.951637047236
 21
7.856210979959858
 31
0.0
  0
LINE
  5
8B
  8
DEFAULT
 62
     1
 10
5190.951637047236
 20
7.856210979959858
 30
0.0
 11
5195.812773414711
 21
7.400071290717405
 31
0.0
  0
LINE
  5
8C
  8
DEFAULT
 62
     1
 10
5195.812773414711
 20
7.400071290717405
 30
0.0
 11
5190.951637047236
 21
6.943931601474953
 31
0.0
  0
LINE
  5
8D
  8
DEFAULT
 62
     1
 10
5190.951637047236
 20
6.943931601474953
 30
0.0
 11
5195.812773414711
 21
6.4877919122325
 31
0.0
  0
LINE
  5
8E
  8
DEFAULT
 62
     1
 10
5195.812773414711
 20
6.4877919122325
 30
0.0
 11
5190.951637047236
 21
6.031652222990046
 31
0.0
  0
LINE
  5
8F
  8
DEFAULT
 62
     1
 10
5190.951637047236
 20
6.031652222990046
 30
0.0
 11
5195.812773414711
 21
5.575512533747593
 31
0.0
  0
LINE
  5
90
  8
DEFAULT
 62
     1
 10
5195.812773414711
 20
5.575512533747593
 30
0.0
 11
5190.951637047236
 21
5.119372844505141
 31
0.0
  0
LINE
  5
91
  8
DEFAULT
 62
     1
 10
5190.951637047236
 20
5.119372844505141
 30
0.0
 11
5195.812773414711
 21
4.663233155262688
 31
0.0
  0
LINE
  5
92
  8
DEFAULT
 62
     1
 10
5195.812773414711
 20
4.663233155262688
 30
0.0
 11
5190.951637047236
 21
4.207093466020235
 31
0.0
  0
LINE
  5
93
  8
DEFAULT
 62
     1
 10
5190.951637047236
 20
4.207093466020235
 30
0.0
 11
5195.812773414711
 21
3.750953776777783
 31
0.0
  0
LINE
  5
94
  8
DEFAULT
 62
     1
 10
5195.812773414711
 20
3.750953776777783
 30
0.0
 11
5190.951637047236
 21
3.29481408753533
 31
0.0
  0
LINE
  5
95
  8
DEFAULT
 62
     1
 10
5190.951637047236
 20
3.29481408753533
 30
0.0
 11
5195.812773414711
 21
2.838674398292876
 31
0.0
  0
LINE
  5
96
  8
DEFAULT
 62
     1
 10
5195.812773414711
 20
2.838674398292876
 30
0.0
 11
5190.951637047236
 21
2.382534709050423
 31
0.0
  0
LINE
  5
97
  8
DEFAULT
 62
     1
 10
5190.951637047236
 20
2.382534709050423
 30
0.0
 11
5195.812773414711
 21
1.926395019807972
 31
0.0
  0
LINE
  5
98
  8
DEFAULT
 62
     1
 10
5195.812773414711
 20
1.926395019807972
 30
0.0
 11
5190.951637047236
 21
1.470255330565518
 31
0.0
  0
LINE
  5
99
  8
DEFAULT
 62
     1
 10
5190.951637047236
 20
1.470255330565518
 30
0.0
 11
5195.812773414711
 21
1.014115641323064
 31
0.0
  0
LINE
  5
9A
  8
DEFAULT
 62
     1
 10
5195.812773414711
 20
1.014115641323064
 30
0.0
 11
5190.951637047236
 21
0.5579759520806125
 31
0.0
  0
LINE
  5
9B
  8
DEFAULT
 62
     1
 10
5190.951637047236
 20
0.5579759520806125
 30
0.0
 11
5195.812773414711
 21
0.1018362628381588
 31
0.0
  0
LINE
  5
9C
  8
DEFAULT
 62
     1
 10
5195.812773414711
 20
0.1018362628381588
 30
0.0
 11
5190.951637047236
 21
-0.354303426404293
 31
0.0
  0
LINE
  5
9D
  8
DEFAULT
 62
     5
 10
5178.137192672417
 20
-0.3543034264043463
 30
-0.0000000000000352
 11
5178.222378027835
 21
18.02023935341064
 31
-0.0000000000000252
  0
LINE
  5
9E
  8
DEFAULT
 62
     5
 10
5178.222378027835
 20
18.02023935341064
 30
-0.0000000000000252
 11
5178.259000149643
 21
19.08559573669842
 31
-0.0000000000000231
  0
LINE
  5
9F
  8
DEFAULT
 62
     5
 10
5178.259000149643
 20
19.08559573669842
 30
-0.0000000000000231
 11
5178.305438730594
 21
19.9801427740037
 31
-0.0000000000000208
  0
LINE
  5
A0
  8
DEFAULT
 62
     5
 10
5178.305438730594
 20
19.9801427740037
 30
-0.0000000000000208
 11
5178.363563856499
 21
20.73594003699534
 31
-0.0000000000000185
  0
LINE
  5
A1
  8
DEFAULT
 62
     5
 10
5178.363563856499
 20
20.73594003699534
 30
-0.0000000000000185
 11
5178.396109300482
 21
21.05718464041215
 31
-0.0000000000000174
  0
LINE
  5
A2
  8
DEFAULT
 62
     5
 10
5178.396109300482
 20
21.05718464041215
 30
-0.0000000000000174
 11
5178.435764545157
 21
21.384132321963
 31
-0.0000000000000161
  0
LINE
  5
A3
  8
DEFAULT
 62
     5
 10
5178.435764545157
 20
21.384132321963
 30
-0.0000000000000161
 11
5178.47629813825
 21
21.66613539218352
 31
-0.0000000000000149
  0
LINE
  5
A4
  8
DEFAULT
 62
     5
 10
5178.47629813825
 20
21.66613539218352
 30
-0.0000000000000149
 11
5178.524543416738
 21
21.95237459855174
 31
-0.0000000000000137
  0
LINE
  5
A5
  8
DEFAULT
 62
     5
 10
5178.524543416738
 20
21.95237459855174
 30
-0.0000000000000137
 11
5178.57424116207
 21
22.20674461000709
 31
-0.0000000000000125
  0
LINE
  5
A6
  8
DEFAULT
 62
     5
 10
5178.57424116207
 20
22.20674461000709
 30
-0.0000000000000125
 11
5178.631030247517
 21
22.46174212318693
 31
-0.0000000000000113
  0
LINE
  5
A7
  8
DEFAULT
 62
     5
 10
5178.631030247517
 20
22.46174212318693
 30
-0.0000000000000113
 11
5178.689927849427
 21
22.6970806786492
 31
-0.0000000000000101
  0
LINE
  5
A8
  8
DEFAULT
 62
     5
 10
5178.689927849427
 20
22.6970806786492
 30
-0.0000000000000101
 11
5178.752794652873
 21
22.92622694711055
 31
-0.000000000000009
  0
LINE
  5
A9
  8
DEFAULT
 62
     5
 10
5178.752794652873
 20
22.92622694711055
 30
-0.000000000000009
 11
5178.884099418399
 21
23.35835012253227
 31
-0.0000000000000071
  0
LINE
  5
AA
  8
DEFAULT
 62
     5
 10
5178.884099418399
 20
23.35835012253227
 30
-0.0000000000000071
 11
5179.035678384638
 21
23.81578434964558
 31
-0.0000000000000054
  0
LINE
  5
AB
  8
DEFAULT
 62
     5
 10
5179.035678384638
 20
23.81578434964558
 30
-0.0000000000000054
 11
5179.201817994247
 21
24.27415799163261
 31
-0.0000000000000039
  0
LINE
  5
AC
  8
DEFAULT
 62
     5
 10
5179.201817994247
 20
24.27415799163261
 30
-0.0000000000000039
 11
5179.299592397941
 21
24.52379898743449
 31
-0.0000000000000032
  0
LINE
  5
AD
  8
DEFAULT
 62
     5
 10
5179.299592397941
 20
24.52379898743449
 30
-0.0000000000000032
 11
5179.403516443292
 21
24.77413700643643
 31
-0.0000000000000026
  0
LINE
  5
AE
  8
DEFAULT
 62
     5
 10
5179.403516443292
 20
24.77413700643643
 30
-0.0000000000000026
 11
5179.514006382211
 21
25.02466220370142
 31
-0.000000000000002
  0
LINE
  5
AF
  8
DEFAULT
 62
     5
 10
5179.514006382211
 20
25.02466220370142
 30
-0.000000000000002
 11
5179.631478466606
 21
25.27486473429251
 31
-0.0000000000000014
  0
LINE
  5
B0
  8
DEFAULT
 62
     5
 10
5179.631478466606
 20
25.27486473429251
 30
-0.0000000000000014
 11
5179.762687195222
 21
25.53644984390414
 31
-0.0000000000000009
  0
LINE
  5
B1
  8
DEFAULT
 62
     5
 10
5179.762687195222
 20
25.53644984390414
 30
-0.0000000000000009
 11
5179.90260797846
 21
25.79660425821784
 31
-0.0000000000000004
  0
LINE
  5
B2
  8
DEFAULT
 62
     5
 10
5179.90260797846
 20
25.79660425821784
 30
-0.0000000000000004
 11
5180.051810796322
 21
26.05481347652597
 31
0.0
  0
LINE
  5
B3
  8
DEFAULT
 62
     5
 10
5180.051810796322
 20
26.05481347652597
 30
0.0
 11
5180.210865628805
 21
26.31056299812091
 31
0.0000000000000004
  0
LINE
  5
B4
  8
DEFAULT
 62
     5
 10
5180.210865628805
 20
26.31056299812091
 30
0.0000000000000004
 11
5180.296996757799
 21
26.44142376962479
 31
0.0000000000000006
  0
LINE
  5
B5
  8
DEFAULT
 62
     5
 10
5180.296996757799
 20
26.44142376962479
 30
0.0000000000000006
 11
5180.385954754726
 21
26.57136388611423
 31
0.0000000000000008
  0
LINE
  5
B6
  8
DEFAULT
 62
     5
 10
5180.385954754726
 20
26.57136388611423
 30
0.0000000000000008
 11
5180.477790102987
 21
26.70025500882747
 31
0.000000000000001
  0
LINE
  5
B7
  8
DEFAULT
 62
     5
 10
5180.477790102987
 20
26.70025500882747
 30
0.000000000000001
 11
5180.572553285976
 21
26.82796879900275
 31
0.0000000000000011
  0
LINE
  5
B8
  8
DEFAULT
 62
     5
 10
5180.572553285976
 20
26.82796879900275
 30
0.0000000000000011
 11
5180.670294787096
 21
26.95437691787834
 31
0.0000000000000013
  0
LINE
  5
B9
  8
DEFAULT
 62
     5
 10
5180.670294787096
 20
26.95437691787834
 30
0.0000000000000013
 11
5180.771065089746
 21
27.07935102669247
 31
0.0000000000000014
  0
LINE
  5
BA
  8
DEFAULT
 62
     5
 10
5180.771065089746
 20
27.07935102669247
 30
0.0000000000000014
 11
5180.874914677323
 21
27.20276278668341
 31
0.0000000000000016
  0
LINE
  5
BB
  8
DEFAULT
 62
     5
 10
5180.874914677323
 20
27.20276278668341
 30
0.0000000000000016
 11
5180.981894033226
 21
27.32448385908938
 31
0.0000000000000017
  0
LINE
  5
BC
  8
DEFAULT
 62
     5
 10
5180.981894033226
 20
27.32448385908938
 30
0.0000000000000017
 11
5181.09587669646
 21
27.44846443926023
 31
0.0000000000000018
  0
LINE
  5
BD
  8
DEFAULT
 62
     5
 10
5181.09587669646
 20
27.44846443926023
 30
0.0000000000000018
 11
5181.213208306211
 21
27.57031810358465
 31
0.0000000000000019
  0
LINE
  5
BE
  8
DEFAULT
 62
     5
 10
5181.213208306211
 20
27.57031810358465
 30
0.0000000000000019
 11
5181.3338353095
 21
27.68986408286139
 31
0.0000000000000021
  0
LINE
  5
BF
  8
DEFAULT
 62
     5
 10
5181.3338353095
 20
27.68986408286139
 30
0.0000000000000021
 11
5181.457704153348
 21
27.80692160788923
 31
0.0000000000000022
  0
LINE
  5
C0
  8
DEFAULT
 62
     5
 10
5181.457704153348
 20
27.80692160788923
 30
0.0000000000000022
 11
5181.584761284779
 21
27.92130990946693
 31
0.0000000000000023
  0
LINE
  5
C1
  8
DEFAULT
 62
     5
 10
5181.584761284779
 20
27.92130990946693
 30
0.0000000000000023
 11
5181.714953150815
 21
28.03284821839326
 31
0.0000000000000023
  0
LINE
  5
C2
  8
DEFAULT
 62
     5
 10
5181.714953150815
 20
28.03284821839326
 30
0.0000000000000023
 11
5181.848226198477
 21
28.141355765467
 31
0.0000000000000024
  0
LINE
  5
C3
  8
DEFAULT
 62
     5
 10
5181.848226198477
 20
28.141355765467
 30
0.0000000000000024
 11
5181.984526874787
 21
28.2466517814869
 31
0.0000000000000025
  0
LINE
  5
C4
  8
DEFAULT
 62
     5
 10
5181.984526874787
 20
28.2466517814869
 30
0.0000000000000025
 11
5182.131889684319
 21
28.35433217350779
 31
0.0000000000000026
  0
LINE
  5
C5
  8
DEFAULT
 62
     5
 10
5182.131889684319
 20
28.35433217350779
 30
0.0000000000000026
 11
5182.282383637461
 21
28.45809618340752
 31
0.0000000000000026
  0
LINE
  5
C6
  8
DEFAULT
 62
     5
 10
5182.282383637461
 20
28.45809618340752
 30
0.0000000000000026
 11
5182.435813394479
 21
28.55782169374892
 31
0.0000000000000027
  0
LINE
  5
C7
  8
DEFAULT
 62
     5
 10
5182.435813394479
 20
28.55782169374892
 30
0.0000000000000027
 11
5182.591983615642
 21
28.65338658709482
 31
0.0000000000000028
  0
LINE
  5
C8
  8
DEFAULT
 62
     5
 10
5182.591983615642
 20
28.65338658709482
 30
0.0000000000000028
 11
5182.750698961217
 21
28.74466874600802
 31
0.0000000000000028
  0
LINE
  5
C9
  8
DEFAULT
 62
     5
 10
5182.750698961217
 20
28.74466874600802
 30
0.0000000000000028
 11
5182.911764091477
 21
28.83154605305135
 31
0.0000000000000029
  0
LINE
  5
CA
  8
DEFAULT
 62
     5
 10
5182.911764091477
 20
28.83154605305135
 30
0.0000000000000029
 11
5183.074983666687
 21
28.91389639078763
 31
0.0000000000000029
  0
LINE
  5
CB
  8
DEFAULT
 62
     5
 10
5183.074983666687
 20
28.91389639078763
 30
0.0000000000000029
 11
5183.240162347115
 21
28.99159764177968
 31
0.0000000000000029
  0
LINE
  5
CC
  8
DEFAULT
 62
     5
 10
5183.240162347115
 20
28.99159764177968
 30
0.0000000000000029
 11
5183.42368443857
 21
29.07151351330344
 31
0.000000000000003
  0
LINE
  5
CD
  8
DEFAULT
 62
     5
 10
5183.42368443857
 20
29.07151351330344
 30
0.000000000000003
 11
5183.60901735866
 21
29.145751674707
 31
0.000000000000003
  0
LINE
  5
CE
  8
DEFAULT
 62
     5
 10
5183.60901735866
 20
29.145751674707
 30
0.000000000000003
 11
5183.795842263785
 21
29.2143954431469
 31
0.000000000000003
  0
LINE
  5
CF
  8
DEFAULT
 62
     5
 10
5183.795842263785
 20
29.2143954431469
 30
0.000000000000003
 11
5183.983840310344
 21
29.27752813577969
 31
0.000000000000003
  0
LINE
  5
D0
  8
DEFAULT
 62
     5
 10
5183.983840310344
 20
29.27752813577969
 30
0.000000000000003
 11
5184.172692654736
 21
29.33523306976192
 31
0.000000000000003
  0
LINE
  5
D1
  8
DEFAULT
 62
     5
 10
5184.172692654736
 20
29.33523306976192
 30
0.000000000000003
 11
5184.362080453359
 21
29.38759356225013
 31
0.0000000000000031
  0
LINE
  5
D2
  8
DEFAULT
 62
     5
 10
5184.362080453359
 20
29.38759356225013
 30
0.0000000000000031
 11
5184.551684862612
 21
29.43469293040087
 31
0.0000000000000031
  0
LINE
  5
D3
  8
DEFAULT
 62
     5
 10
5184.551684862612
 20
29.43469293040087
 30
0.0000000000000031
 11
5184.741187038895
 21
29.4766144913707
 31
0.0000000000000031
  0
LINE
  5
D4
  8
DEFAULT
 62
     5
 10
5184.741187038895
 20
29.4766144913707
 30
0.0000000000000031
 11
5184.957790461667
 21
29.51839864830453
 31
0.0000000000000031
  0
LINE
  5
D5
  8
DEFAULT
 62
     5
 10
5184.957790461667
 20
29.51839864830453
 30
0.0000000000000031
 11
5185.173899359206
 21
29.55376069021911
 31
0.0000000000000031
  0
LINE
  5
D6
  8
DEFAULT
 62
     5
 10
5185.173899359206
 20
29.55376069021911
 30
0.0000000000000031
 11
5185.389571605781
 21
29.58296183224468
 31
0.0000000000000031
  0
LINE
  5
D7
  8
DEFAULT
 62
     5
 10
5185.389571605781
 20
29.58296183224468
 30
0.0000000000000031
 11
5185.604865075662
 21
29.60626328951147
 31
0.0000000000000031
  0
LINE
  5
D8
  8
DEFAULT
 62
     5
 10
5185.604865075662
 20
29.60626328951147
 30
0.0000000000000031
 11
5185.819837643117
 21
29.62392627714973
 31
0.0000000000000031
  0
LINE
  5
D9
  8
DEFAULT
 62
     5
 10
5185.819837643117
 20
29.62392627714973
 30
0.0000000000000031
 11
5186.034547182415
 21
29.63621201028968
 31
0.0000000000000031
  0
LINE
  5
DA
  8
DEFAULT
 62
     5
 10
5186.034547182415
 20
29.63621201028968
 30
0.0000000000000031
 11
5186.249051567823
 21
29.64338170406156
 31
0.0000000000000031
  0
LINE
  5
DB
  8
DEFAULT
 62
     5
 10
5186.249051567823
 20
29.64338170406156
 30
0.0000000000000031
 11
5186.463408673611
 21
29.64569657359561
 31
0.0000000000000031
  0
LINE
  5
DC
  8
DEFAULT
 62
     5
 10
5186.463408673611
 20
29.64569657359561
 30
0.0000000000000031
 11
5186.677685616397
 21
29.64333164337268
 31
0.0000000000000031
  0
LINE
  5
DD
  8
DEFAULT
 62
     5
 10
5186.677685616397
 20
29.64333164337268
 30
0.0000000000000031
 11
5186.891986482194
 21
29.63611717527606
 31
0.0000000000000031
  0
LINE
  5
DE
  8
DEFAULT
 62
     5
 10
5186.891986482194
 20
29.63611717527606
 30
0.0000000000000031
 11
5187.106424599364
 21
29.62379724053964
 31
0.0000000000000031
  0
LINE
  5
DF
  8
DEFAULT
 62
     5
 10
5187.106424599364
 20
29.62379724053964
 30
0.0000000000000031
 11
5187.32111329627
 21
29.60611591039733
 31
0.0000000000000031
  0
LINE
  5
E0
  8
DEFAULT
 62
     5
 10
5187.32111329627
 20
29.60611591039733
 30
0.0000000000000031
 11
5187.536165901272
 21
29.58281725608301
 31
0.0000000000000031
  0
LINE
  5
E1
  8
DEFAULT
 62
     5
 10
5187.536165901272
 20
29.58281725608301
 30
0.0000000000000031
 11
5187.751695742735
 21
29.55364534883061
 31
0.0000000000000031
  0
LINE
  5
E2
  8
DEFAULT
 62
     5
 10
5187.751695742735
 20
29.55364534883061
 30
0.0000000000000031
 11
5187.96781614902
 21
29.518344259874
 31
0.0000000000000031
  0
LINE
  5
E3
  8
DEFAULT
 62
     5
 10
5187.96781614902
 20
29.518344259874
 30
0.0000000000000031
 11
5188.184640448489
 21
29.47665806044709
 31
0.0000000000000031
  0
LINE
  5
E4
  8
DEFAULT
 62
     5
 10
5188.184640448489
 20
29.47665806044709
 30
0.0000000000000031
 11
5188.380014507138
 21
29.43356745520217
 31
0.0000000000000031
  0
LINE
  5
E5
  8
DEFAULT
 62
     5
 10
5188.380014507138
 20
29.43356745520217
 30
0.0000000000000031
 11
5188.575574899949
 21
29.38499818119091
 31
0.0000000000000031
  0
LINE
  5
E6
  8
DEFAULT
 62
     5
 10
5188.575574899949
 20
29.38499818119091
 30
0.0000000000000031
 11
5188.770848511113
 21
29.33083049971269
 31
0.000000000000003
  0
LINE
  5
E7
  8
DEFAULT
 62
     5
 10
5188.770848511113
 20
29.33083049971269
 30
0.000000000000003
 11
5188.965362224824
 21
29.27094467206689
 31
0.000000000000003
  0
LINE
  5
E8
  8
DEFAULT
 62
     5
 10
5188.965362224824
 20
29.27094467206689
 30
0.000000000000003
 11
5189.147863156113
 21
29.20907621236289
 31
0.000000000000003
  0
LINE
  5
E9
  8
DEFAULT
 62
     5
 10
5189.147863156113
 20
29.20907621236289
 30
0.000000000000003
 11
5189.329060067076
 21
29.14195528885328
 31
0.000000000000003
  0
LINE
  5
EA
  8
DEFAULT
 62
     5
 10
5189.329060067076
 20
29.14195528885328
 30
0.000000000000003
 11
5189.508747372038
 21
29.06953014013333
 31
0.000000000000003
  0
LINE
  5
EB
  8
DEFAULT
 62
     5
 10
5189.508747372038
 20
29.06953014013333
 30
0.000000000000003
 11
5189.686719485324
 21
28.99174900479833
 31
0.0000000000000029
  0
LINE
  5
EC
  8
DEFAULT
 62
     5
 10
5189.686719485324
 20
28.99174900479833
 30
0.0000000000000029
 11
5189.851754211006
 21
28.91397862517879
 31
0.0000000000000029
  0
LINE
  5
ED
  8
DEFAULT
 62
     5
 10
5189.851754211006
 20
28.91397862517879
 30
0.0000000000000029
 11
5190.014894383696
 21
28.83157857332219
 31
0.0000000000000029
  0
LINE
  5
EE
  8
DEFAULT
 62
     5
 10
5190.014894383696
 20
28.83157857332219
 30
0.0000000000000029
 11
5190.175932253449
 21
28.74466819480025
 31
0.0000000000000028
  0
LINE
  5
EF
  8
DEFAULT
 62
     5
 10
5190.175932253449
 20
28.74466819480025
 30
0.0000000000000028
 11
5190.334660070321
 21
28.65336683518472
 31
0.0000000000000028
  0
LINE
  5
F0
  8
DEFAULT
 62
     5
 10
5190.334660070321
 20
28.65336683518472
 30
0.0000000000000028
 11
5190.490870084368
 21
28.5577938400473
 31
0.0000000000000027
  0
LINE
  5
F1
  8
DEFAULT
 62
     5
 10
5190.490870084368
 20
28.5577938400473
 30
0.0000000000000027
 11
5190.644354545647
 21
28.45806855495974
 31
0.0000000000000026
  0
LINE
  5
F2
  8
DEFAULT
 62
     5
 10
5190.644354545647
 20
28.45806855495974
 30
0.0000000000000026
 11
5190.794905704213
 21
28.35431032549375
 31
0.0000000000000026
  0
LINE
  5
F3
  8
DEFAULT
 62
     5
 10
5190.794905704213
 20
28.35431032549375
 30
0.0000000000000026
 11
5190.942315810122
 21
28.24663849722107
 31
0.0000000000000025
  0
LINE
  5
F4
  8
DEFAULT
 62
     5
 10
5190.942315810122
 20
28.24663849722107
 30
0.0000000000000025
 11
5191.078643219271
 21
28.14135096823439
 31
0.0000000000000024
  0
LINE
  5
F5
  8
DEFAULT
 62
     5
 10
5191.078643219271
 20
28.14135096823439
 30
0.0000000000000024
 11
5191.211926557838
 21
28.03285157193193
 31
0.0000000000000023
  0
LINE
  5
F6
  8
DEFAULT
 62
     5
 10
5191.211926557838
 20
28.03285157193193
 30
0.0000000000000023
 11
5191.342115785671
 21
27.92132073101688
 31
0.0000000000000023
  0
LINE
  5
F7
  8
DEFAULT
 62
     5
 10
5191.342115785671
 20
27.92132073101688
 30
0.0000000000000023
 11
5191.469160862616
 21
27.80693886819244
 31
0.0000000000000022
  0
LINE
  5
F8
  8
DEFAULT
 62
     5
 10
5191.469160862616
 20
27.80693886819244
 30
0.0000000000000022
 11
5191.593011748521
 21
27.6898864061618
 31
0.0000000000000021
  0
LINE
  5
F9
  8
DEFAULT
 62
     5
 10
5191.593011748521
 20
27.6898864061618
 30
0.0000000000000021
 11
5191.713618403233
 21
27.57034376762815
 31
0.0000000000000019
  0
LINE
  5
FA
  8
DEFAULT
 62
     5
 10
5191.713618403233
 20
27.57034376762815
 30
0.0000000000000019
 11
5191.8309307866
 21
27.44849137529468
 31
0.0000000000000018
  0
LINE
  5
FB
  8
DEFAULT
 62
     5
 10
5191.8309307866
 20
27.44849137529468
 30
0.0000000000000018
 11
5191.944898858468
 21
27.32450965186459
 31
0.0000000000000017
  0
LINE
  5
FC
  8
DEFAULT
 62
     5
 10
5191.944898858468
 20
27.32450965186459
 30
0.0000000000000017
 11
5192.051871057054
 21
27.20278500788588
 31
0.0000000000000016
  0
LINE
  5
FD
  8
DEFAULT
 62
     5
 10
5192.051871057054
 20
27.20278500788588
 30
0.0000000000000016
 11
5192.15571971721
 21
27.07936771642925
 31
0.0000000000000014
  0
LINE
  5
FE
  8
DEFAULT
 62
     5
 10
5192.15571971721
 20
27.07936771642925
 30
0.0000000000000014
 11
5192.256493936597
 21
26.95438673771714
 31
0.0000000000000013
  0
LINE
  5
FF
  8
DEFAULT
 62
     5
 10
5192.256493936597
 20
26.95438673771714
 30
0.0000000000000013
 11
5192.354242812875
 21
26.82797103197203
 31
0.0000000000000011
  0
LINE
  5
100
  8
DEFAULT
 62
     5
 10
5192.354242812875
 20
26.82797103197203
 30
0.0000000000000011
 11
5192.449015443704
 21
26.70024955941635
 31
0.000000000000001
  0
LINE
  5
101
  8
DEFAULT
 62
     5
 10
5192.449015443704
 20
26.70024955941635
 30
0.000000000000001
 11
5192.540860926747
 21
26.57135128027256
 31
0.0000000000000008
  0
LINE
  5
102
  8
DEFAULT
 62
     5
 10
5192.540860926747
 20
26.57135128027256
 30
0.0000000000000008
 11
5192.629828359662
 21
26.44140515476312
 31
0.0000000000000006
  0
LINE
  5
103
  8
DEFAULT
 62
     5
 10
5192.629828359662
 20
26.44140515476312
 30
0.0000000000000006
 11
5192.715966840111
 21
26.31054014311049
 31
0.0000000000000004
  0
LINE
  5
104
  8
DEFAULT
 62
     5
 10
5192.715966840111
 20
26.31054014311049
 30
0.0000000000000004
 11
5192.875027129766
 21
26.05478870634223
 31
0.0
  0
LINE
  5
105
  8
DEFAULT
 62
     5
 10
5192.875027129766
 20
26.05478870634223
 30
0.0
 11
5193.024226227615
 21
25.79658473765171
 31
-0.0000000000000004
  0
LINE
  5
106
  8
DEFAULT
 62
     5
 10
5193.024226227615
 20
25.79658473765171
 30
-0.0000000000000004
 11
5193.164137963176
 21
25.53644092970741
 31
-0.0000000000000009
  0
LINE
  5
107
  8
DEFAULT
 62
     5
 10
5193.164137963176
 20
25.53644092970741
 30
-0.0000000000000009
 11
5193.295336165967
 21
25.27486997517778
 31
-0.0000000000000014
  0
LINE
  5
108
  8
DEFAULT
 62
     5
 10
5193.295336165967
 20
25.27486997517778
 30
-0.0000000000000014
 11
5193.412799908729
 21
25.02468237555379
 31
-0.000000000000002
  0
LINE
  5
109
  8
DEFAULT
 62
     5
 10
5193.412799908729
 20
25.02468237555379
 30
-0.000000000000002
 11
5193.523284236397
 21
24.77417087140888
 31
-0.0000000000000026
  0
LINE
  5
10A
  8
DEFAULT
 62
     5
 10
5193.523284236397
 20
24.77417087140888
 30
-0.0000000000000026
 11
5193.627205976485
 21
24.52384248814844
 31
-0.0000000000000032
  0
LINE
  5
10B
  8
DEFAULT
 62
     5
 10
5193.627205976485
 20
24.52384248814844
 30
-0.0000000000000032
 11
5193.724981956508
 21
24.27420425117787
 31
-0.0000000000000039
  0
LINE
  5
10C
  8
DEFAULT
 62
     5
 10
5193.724981956508
 20
24.27420425117787
 30
-0.0000000000000039
 11
5193.891128210402
 21
23.81582576441443
 31
-0.0000000000000054
  0
LINE
  5
10D
  8
DEFAULT
 62
     5
 10
5193.891128210402
 20
23.81582576441443
 30
-0.0000000000000054
 11
5194.042682223461
 21
23.35844165339178
 31
-0.0000000000000071
  0
LINE
  5
10E
  8
DEFAULT
 62
     5
 10
5194.042682223461
 20
23.35844165339178
 30
-0.0000000000000071
 11
5194.17401435437
 21
22.92625567075749
 31
-0.000000000000009
  0
LINE
  5
10F
  8
DEFAULT
 62
     5
 10
5194.17401435437
 20
22.92625567075749
 30
-0.000000000000009
 11
5194.237025284501
 21
22.69682165744452
 31
-0.0000000000000101
  0
LINE
  5
110
  8
DEFAULT
 62
     5
 10
5194.237025284501
 20
22.69682165744452
 30
-0.0000000000000101
 11
5194.295960647236
 21
22.46143048746503
 31
-0.0000000000000113
  0
LINE
  5
111
  8
DEFAULT
 62
     5
 10
5194.295960647236
 20
22.46143048746503
 30
-0.0000000000000113
 11
5194.356120118991
 21
22.18951216255175
 31
-0.0000000000000126
  0
LINE
  5
112
  8
DEFAULT
 62
     5
 10
5194.356120118991
 20
22.18951216255175
 30
-0.0000000000000126
 11
5194.408250355491
 21
21.91831552267936
 31
-0.0000000000000138
  0
LINE
  5
113
  8
DEFAULT
 62
     5
 10
5194.408250355491
 20
21.91831552267936
 30
-0.0000000000000138
 11
5194.453040669803
 21
21.649276691742
 31
-0.000000000000015
  0
LINE
  5
114
  8
DEFAULT
 62
     5
 10
5194.453040669803
 20
21.649276691742
 30
-0.000000000000015
 11
5194.491180374998
 21
21.38383179363387
 31
-0.0000000000000161
  0
LINE
  5
115
  8
DEFAULT
 62
     5
 10
5194.491180374998
 20
21.38383179363387
 30
-0.0000000000000161
 11
5194.530861176036
 21
21.05684033366482
 31
-0.0000000000000174
  0
LINE
  5
116
  8
DEFAULT
 62
     5
 10
5194.530861176036
 20
21.05684033366482
 30
-0.0000000000000174
 11
5194.563265484108
 21
20.73593446177339
 31
-0.0000000000000185
  0
LINE
  5
117
  8
DEFAULT
 62
     5
 10
5194.563265484108
 20
20.73593446177339
 30
-0.0000000000000185
 11
5194.621373403903
 21
19.980163816834
 31
-0.0000000000000208
  0
LINE
  5
118
  8
DEFAULT
 62
     5
 10
5194.621373403903
 20
19.980163816834
 30
-0.0000000000000208
 11
5194.667817069183
 21
19.08563334318149
 31
-0.0000000000000231
  0
LINE
  5
119
  8
DEFAULT
 62
     5
 10
5194.667817069183
 20
19.08563334318149
 30
-0.0000000000000231
 11
5194.753756052305
 21
15.25050847343031
 31
-0.0000000000000291
  0
LINE
  5
11A
  8
DEFAULT
 62
     5
 10
5194.753756052305
 20
15.25050847343031
 30
-0.0000000000000291
 11
5194.789624674806
 21
-0.3543034264043463
 31
-0.0000000000000352
  0
LINE
  5
11B
  8
DEFAULT
 62
     5
 10
5194.789624674806
 20
-0.3543034264043463
 30
-0.0000000000000352
 11
5191.789624674806
 21
-0.3543034264043463
 31
-0.0000000000000352
  0
LINE
  5
11C
  8
DEFAULT
 62
     5
 10
5191.789624674806
 20
-0.3543034264043463
 30
-0.0000000000000352
 11
5191.705592249236
 21
17.93702997658016
 31
-0.0000000000000253
  0
LINE
  5
11D
  8
DEFAULT
 62
     5
 10
5191.705592249236
 20
17.93702997658016
 30
-0.0000000000000253
 11
5191.67049968882
 21
18.9587511583792
 31
-0.0000000000000233
  0
LINE
  5
11E
  8
DEFAULT
 62
     5
 10
5191.67049968882
 20
18.9587511583792
 30
-0.0000000000000233
 11
5191.627377415734
 21
19.7905079200473
 31
-0.0000000000000212
  0
LINE
  5
11F
  8
DEFAULT
 62
     5
 10
5191.627377415734
 20
19.7905079200473
 30
-0.0000000000000212
 11
5191.576101256173
 21
20.45859536662751
 31
-0.0000000000000191
  0
LINE
  5
120
  8
DEFAULT
 62
     5
 10
5191.576101256173
 20
20.45859536662751
 30
-0.0000000000000191
 11
5191.548815500963
 21
20.72802139509345
 31
-0.0000000000000182
  0
LINE
  5
121
  8
DEFAULT
 62
     5
 10
5191.548815500963
 20
20.72802139509345
 30
-0.0000000000000182
 11
5191.517075770263
 21
20.99003703280743
 31
-0.0000000000000172
  0
LINE
  5
122
  8
DEFAULT
 62
     5
 10
5191.517075770263
 20
20.99003703280743
 30
-0.0000000000000172
 11
5191.488140627484
 21
21.19207717456061
 31
-0.0000000000000163
  0
LINE
  5
123
  8
DEFAULT
 62
     5
 10
5191.488140627484
 20
21.19207717456061
 30
-0.0000000000000163
 11
5191.455428884194
 21
21.38887790966697
 31
-0.0000000000000155
  0
LINE
  5
124
  8
DEFAULT
 62
     5
 10
5191.455428884194
 20
21.38887790966697
 30
-0.0000000000000155
 11
5191.418425235436
 21
21.58137438063996
 31
-0.0000000000000146
  0
LINE
  5
125
  8
DEFAULT
 62
     5
 10
5191.418425235436
 20
21.58137438063996
 30
-0.0000000000000146
 11
5191.37661437625
 21
21.77050172999301
 31
-0.0000000000000137
  0
LINE
  5
126
  8
DEFAULT
 62
     5
 10
5191.37661437625
 20
21.77050172999301
 30
-0.0000000000000137
 11
5191.335779971447
 21
21.93389576853987
 31
-0.0000000000000129
  0
LINE
  5
127
  8
DEFAULT
 62
     5
 10
5191.335779971447
 20
21.93389576853987
 30
-0.0000000000000129
 11
5191.289795232855
 21
22.1008568353702
 31
-0.0000000000000121
  0
LINE
  5
128
  8
DEFAULT
 62
     5
 10
5191.289795232855
 20
22.1008568353702
 30
-0.0000000000000121
 11
5191.182866571248
 21
22.45200663389868
 31
-0.0000000000000105
  0
LINE
  5
129
  8
DEFAULT
 62
     5
 10
5191.182866571248
 20
22.45200663389868
 30
-0.0000000000000105
 11
5191.05631605075
 21
22.8339423474009
 31
-0.0000000000000091
  0
LINE
  5
12A
  8
DEFAULT
 62
     5
 10
5191.05631605075
 20
22.8339423474009
 30
-0.0000000000000091
 11
5190.921273217695
 21
23.20684819928712
 31
-0.0000000000000079
  0
LINE
  5
12B
  8
DEFAULT
 62
     5
 10
5190.921273217695
 20
23.20684819928712
 30
-0.0000000000000079
 11
5190.844405570223
 21
23.40321426750605
 31
-0.0000000000000073
  0
LINE
  5
12C
  8
DEFAULT
 62
     5
 10
5190.844405570223
 20
23.40321426750605
 30
-0.0000000000000073
 11
5190.764693965917
 21
23.59524717971512
 31
-0.0000000000000068
  0
LINE
  5
12D
  8
DEFAULT
 62
     5
 10
5190.764693965917
 20
23.59524717971512
 30
-0.0000000000000068
 11
5190.681904355111
 21
23.78293000689922
 31
-0.0000000000000064
  0
LINE
  5
12E
  8
DEFAULT
 62
     5
 10
5190.681904355111
 20
23.78293000689922
 30
-0.0000000000000064
 11
5190.595802688136
 21
23.96624582004331
 31
-0.000000000000006
  0
LINE
  5
12F
  8
DEFAULT
 62
     5
 10
5190.595802688136
 20
23.96624582004331
 30
-0.000000000000006
 11
5190.501695778443
 21
24.15378489722401
 31
-0.0000000000000056
  0
LINE
  5
130
  8
DEFAULT
 62
     5
 10
5190.501695778443
 20
24.15378489722401
 30
-0.0000000000000056
 11
5190.403620054645
 21
24.33613547902998
 31
-0.0000000000000053
  0
LINE
  5
131
  8
DEFAULT
 62
     5
 10
5190.403620054645
 20
24.33613547902998
 30
-0.0000000000000053
 11
5190.301509258411
 21
24.51293368136964
 31
-0.000000000000005
  0
LINE
  5
132
  8
DEFAULT
 62
     5
 10
5190.301509258411
 20
24.51293368136964
 30
-0.000000000000005
 11
5190.195297131404
 21
24.68381562015143
 31
-0.0000000000000047
  0
LINE
  5
133
  8
DEFAULT
 62
     5
 10
5190.195297131404
 20
24.68381562015143
 30
-0.0000000000000047
 11
5190.13885239119
 21
24.76958225100919
 31
-0.0000000000000046
  0
LINE
  5
134
  8
DEFAULT
 62
     5
 10
5190.13885239119
 20
24.76958225100919
 30
-0.0000000000000046
 11
5190.081298198492
 21
24.8536409024867
 31
-0.0000000000000045
  0
LINE
  5
135
  8
DEFAULT
 62
     5
 10
5190.081298198492
 20
24.8536409024867
 30
-0.0000000000000045
 11
5190.022635332632
 21
24.9359566055483
 31
-0.0000000000000044
  0
LINE
  5
136
  8
DEFAULT
 62
     5
 10
5190.022635332632
 20
24.9359566055483
 30
-0.0000000000000044
 11
5189.962864572934
 21
25.01649439115834
 31
-0.0000000000000042
  0
LINE
  5
137
  8
DEFAULT
 62
     5
 10
5189.962864572934
 20
25.01649439115834
 30
-0.0000000000000042
 11
5189.901986698723
 21
25.09521929028119
 31
-0.0000000000000042
  0
LINE
  5
138
  8
DEFAULT
 62
     5
 10
5189.901986698723
 20
25.09521929028119
 30
-0.0000000000000042
 11
5189.840002489324
 21
25.17209633388119
 31
-0.0000000000000041
  0
LINE
  5
139
  8
DEFAULT
 62
     5
 10
5189.840002489324
 20
25.17209633388119
 30
-0.0000000000000041
 11
5189.776912724059
 21
25.2470905529227
 31
-0.000000000000004
  0
LINE
  5
13A
  8
DEFAULT
 62
     5
 10
5189.776912724059
 20
25.2470905529227
 30
-0.000000000000004
 11
5189.712718182253
 21
25.32016697837008
 31
-0.0000000000000039
  0
LINE
  5
13B
  8
DEFAULT
 62
     5
 10
5189.712718182253
 20
25.32016697837008
 30
-0.0000000000000039
 11
5189.645156291291
 21
25.3937036611359
 31
-0.0000000000000038
  0
LINE
  5
13C
  8
DEFAULT
 62
     5
 10
5189.645156291291
 20
25.3937036611359
 30
-0.0000000000000038
 11
5189.576410372469
 21
25.46514185340806
 31
-0.0000000000000038
  0
LINE
  5
13D
  8
DEFAULT
 62
     5
 10
5189.576410372469
 20
25.46514185340806
 30
-0.0000000000000038
 11
5189.506477546556
 21
25.53447229360796
 31
-0.0000000000000037
  0
LINE
  5
13E
  8
DEFAULT
 62
     5
 10
5189.506477546556
 20
25.53447229360796
 30
-0.0000000000000037
 11
5189.435354934324
 21
25.60168572015703
 31
-0.0000000000000036
  0
LINE
  5
13F
  8
DEFAULT
 62
     5
 10
5189.435354934324
 20
25.60168572015703
 30
-0.0000000000000036
 11
5189.363039656544
 21
25.66677287147667
 31
-0.0000000000000036
  0
LINE
  5
140
  8
DEFAULT
 62
     5
 10
5189.363039656544
 20
25.66677287147667
 30
-0.0000000000000036
 11
5189.289528833986
 21
25.72972448598831
 31
-0.0000000000000035
  0
LINE
  5
141
  8
DEFAULT
 62
     5
 10
5189.289528833986
 20
25.72972448598831
 30
-0.0000000000000035
 11
5189.214819587421
 21
25.79053130211334
 31
-0.0000000000000035
  0
LINE
  5
142
  8
DEFAULT
 62
     5
 10
5189.214819587421
 20
25.79053130211334
 30
-0.0000000000000035
 11
5189.138909037617
 21
25.8491840582732
 31
-0.0000000000000034
  0
LINE
  5
143
  8
DEFAULT
 62
     5
 10
5189.138909037617
 20
25.8491840582732
 30
-0.0000000000000034
 11
5189.057313711623
 21
25.90886421566932
 31
-0.0000000000000034
  0
LINE
  5
144
  8
DEFAULT
 62
     5
 10
5189.057313711623
 20
25.90886421566932
 30
-0.0000000000000034
 11
5188.974350403512
 21
25.96613571524168
 31
-0.0000000000000034
  0
LINE
  5
145
  8
DEFAULT
 62
     5
 10
5188.974350403512
 20
25.96613571524168
 30
-0.0000000000000034
 11
5188.889998001043
 21
26.0210095595493
 31
-0.0000000000000033
  0
LINE
  5
146
  8
DEFAULT
 62
     5
 10
5188.889998001043
 20
26.0210095595493
 30
-0.0000000000000033
 11
5188.80423539197
 21
26.07349675115115
 31
-0.0000000000000033
  0
LINE
  5
147
  8
DEFAULT
 62
     5
 10
5188.80423539197
 20
26.07349675115115
 30
-0.0000000000000033
 11
5188.71704146405
 21
26.12360829260626
 31
-0.0000000000000033
  0
LINE
  5
148
  8
DEFAULT
 62
     5
 10
5188.71704146405
 20
26.12360829260626
 30
-0.0000000000000033
 11
5188.628395105035
 21
26.17135518647362
 31
-0.0000000000000032
  0
LINE
  5
149
  8
DEFAULT
 62
     5
 10
5188.628395105035
 20
26.17135518647362
 30
-0.0000000000000032
 11
5188.538275202685
 21
26.21674843531222
 31
-0.0000000000000032
  0
LINE
  5
14A
  8
DEFAULT
 62
     5
 10
5188.538275202685
 20
26.21674843531222
 30
-0.0000000000000032
 11
5188.446660644753
 21
26.25979904168108
 31
-0.0000000000000032
  0
LINE
  5
14B
  8
DEFAULT
 62
     5
 10
5188.446660644753
 20
26.25979904168108
 30
-0.0000000000000032
 11
5188.347241851821
 21
26.30316646288978
 31
-0.0000000000000032
  0
LINE
  5
14C
  8
DEFAULT
 62
     5
 10
5188.347241851821
 20
26.30316646288978
 30
-0.0000000000000032
 11
5188.246165244882
 21
26.34388799239661
 31
-0.0000000000000032
  0
LINE
  5
14D
  8
DEFAULT
 62
     5
 10
5188.246165244882
 20
26.34388799239661
 30
-0.0000000000000032
 11
5188.143499027978
 21
26.38197279721248
 31
-0.0000000000000032
  0
LINE
  5
14E
  8
DEFAULT
 62
     5
 10
5188.143499027978
 20
26.38197279721248
 30
-0.0000000000000032
 11
5188.039311405149
 21
26.41743004434824
 31
-0.0000000000000031
  0
LINE
  5
14F
  8
DEFAULT
 62
     5
 10
5188.039311405149
 20
26.41743004434824
 30
-0.0000000000000031
 11
5187.927303543202
 21
26.45213975064826
 31
-0.0000000000000031
  0
LINE
  5
150
  8
DEFAULT
 62
     5
 10
5187.927303543202
 20
26.45213975064826
 30
-0.0000000000000031
 11
5187.813516534399
 21
26.48391872507931
 31
-0.0000000000000031
  0
LINE
  5
151
  8
DEFAULT
 62
     5
 10
5187.813516534399
 20
26.48391872507931
 30
-0.0000000000000031
 11
5187.697802477946
 21
26.51277542784466
 31
-0.0000000000000031
  0
LINE
  5
152
  8
DEFAULT
 62
     5
 10
5187.697802477946
 20
26.51277542784466
 30
-0.0000000000000031
 11
5187.580013473038
 21
26.53871831914759
 31
-0.0000000000000031
  0
LINE
  5
153
  8
DEFAULT
 62
     5
 10
5187.580013473038
 20
26.53871831914759
 30
-0.0000000000000031
 11
5187.446360884702
 21
26.56418740829513
 31
-0.0000000000000031
  0
LINE
  5
154
  8
DEFAULT
 62
     5
 10
5187.446360884702
 20
26.56418740829513
 30
-0.0000000000000031
 11
5187.310307760172
 21
26.58610412155415
 31
-0.0000000000000031
  0
LINE
  5
155
  8
DEFAULT
 62
     5
 10
5187.310307760172
 20
26.58610412155415
 30
-0.0000000000000031
 11
5187.172208223032
 21
26.60451653153441
 31
-0.0000000000000031
  0
LINE
  5
156
  8
DEFAULT
 62
     5
 10
5187.172208223032
 20
26.60451653153441
 30
-0.0000000000000031
 11
5187.032416396865
 21
26.61947271084566
 31
-0.0000000000000031
  0
LINE
  5
157
  8
DEFAULT
 62
     5
 10
5187.032416396865
 20
26.61947271084566
 30
-0.0000000000000031
 11
5186.891286405256
 21
26.63102073209764
 31
-0.0000000000000031
  0
LINE
  5
158
  8
DEFAULT
 62
     5
 10
5186.891286405256
 20
26.63102073209764
 30
-0.0000000000000031
 11
5186.749172371789
 21
26.63920866790013
 31
-0.0000000000000031
  0
LINE
  5
159
  8
DEFAULT
 62
     5
 10
5186.749172371789
 20
26.63920866790013
 30
-0.0000000000000031
 11
5186.606428420046
 21
26.64408459086287
 31
-0.0000000000000031
  0
LINE
  5
15A
  8
DEFAULT
 62
     5
 10
5186.606428420046
 20
26.64408459086287
 30
-0.0000000000000031
 11
5186.463408673611
 21
26.64569657359561
 31
-0.0000000000000031
  0
LINE
  5
15B
  8
DEFAULT
 62
     5
 10
5186.463408673611
 20
26.64569657359561
 30
-0.0000000000000031
 11
5186.320458922708
 21
26.64407672852604
 31
-0.0000000000000031
  0
LINE
  5
15C
  8
DEFAULT
 62
     5
 10
5186.320458922708
 20
26.64407672852604
 30
-0.0000000000000031
 11
5186.177891624104
 21
26.63919332735351
 31
-0.0000000000000031
  0
LINE
  5
15D
  8
DEFAULT
 62
     5
 10
5186.177891624104
 20
26.63919332735351
 30
-0.0000000000000031
 11
5186.03601090121
 21
26.63099868159529
 31
-0.0000000000000031
  0
LINE
  5
15E
  8
DEFAULT
 62
     5
 10
5186.03601090121
 20
26.63099868159529
 30
-0.0000000000000031
 11
5185.895120877432
 21
26.61944510276867
 31
-0.0000000000000031
  0
LINE
  5
15F
  8
DEFAULT
 62
     5
 10
5185.895120877432
 20
26.61944510276867
 30
-0.0000000000000031
 11
5185.755525676181
 21
26.60448490239093
 31
-0.0000000000000031
  0
LINE
  5
160
  8
DEFAULT
 62
     5
 10
5185.755525676181
 20
26.60448490239093
 30
-0.0000000000000031
 11
5185.617529420862
 21
26.58607039197934
 31
-0.0000000000000031
  0
LINE
  5
161
  8
DEFAULT
 62
     5
 10
5185.617529420862
 20
26.58607039197934
 30
-0.0000000000000031
 11
5185.481436234885
 21
26.56415388305119
 31
-0.0000000000000031
  0
LINE
  5
162
  8
DEFAULT
 62
     5
 10
5185.481436234885
 20
26.56415388305119
 30
-0.0000000000000031
 11
5185.347550241657
 21
26.53868768712375
 31
-0.0000000000000031
  0
LINE
  5
163
  8
DEFAULT
 62
     5
 10
5185.347550241657
 20
26.53868768712375
 30
-0.0000000000000031
 11
5185.232662398943
 21
26.5135176322833
 31
-0.0000000000000031
  0
LINE
  5
164
  8
DEFAULT
 62
     5
 10
5185.232662398943
 20
26.5135176322833
 30
-0.0000000000000031
 11
5185.119665566173
 21
26.48559644436878
 31
-0.0000000000000031
  0
LINE
  5
165
  8
DEFAULT
 62
     5
 10
5185.119665566173
 20
26.48559644436878
 30
-0.0000000000000031
 11
5185.008536456853
 21
26.45491515522947
 31
-0.0000000000000031
  0
LINE
  5
166
  8
DEFAULT
 62
     5
 10
5185.008536456853
 20
26.45491515522947
 30
-0.0000000000000031
 11
5184.899251784489
 21
26.42146479671462
 31
-0.0000000000000031
  0
LINE
  5
167
  8
DEFAULT
 62
     5
 10
5184.899251784489
 20
26.42146479671462
 30
-0.0000000000000031
 11
5184.791788262584
 21
26.38523640067352
 31
-0.0000000000000032
  0
LINE
  5
168
  8
DEFAULT
 62
     5
 10
5184.791788262584
 20
26.38523640067352
 30
-0.0000000000000032
 11
5184.686122604642
 21
26.34622099895542
 31
-0.0000000000000032
  0
LINE
  5
169
  8
DEFAULT
 62
     5
 10
5184.686122604642
 20
26.34622099895542
 30
-0.0000000000000032
 11
5184.582231524169
 21
26.30440962340959
 31
-0.0000000000000032
  0
LINE
  5
16A
  8
DEFAULT
 62
     5
 10
5184.582231524169
 20
26.30440962340959
 30
-0.0000000000000032
 11
5184.480091734671
 21
26.2597933058853
 31
-0.0000000000000032
  0
LINE
  5
16B
  8
DEFAULT
 62
     5
 10
5184.480091734671
 20
26.2597933058853
 30
-0.0000000000000032
 11
5184.388643726657
 21
26.21674418654136
 31
-0.0000000000000032
  0
LINE
  5
16C
  8
DEFAULT
 62
     5
 10
5184.388643726657
 20
26.21674418654136
 30
-0.0000000000000032
 11
5184.29861888885
 21
26.17135324385051
 31
-0.0000000000000032
  0
LINE
  5
16D
  8
DEFAULT
 62
     5
 10
5184.29861888885
 20
26.17135324385051
 30
-0.0000000000000032
 11
5184.210009281725
 21
26.1236090964391
 31
-0.0000000000000033
  0
LINE
  5
16E
  8
DEFAULT
 62
     5
 10
5184.210009281725
 20
26.1236090964391
 30
-0.0000000000000033
 11
5184.122806965757
 21
26.07350036293342
 31
-0.0000000000000033
  0
LINE
  5
16F
  8
DEFAULT
 62
     5
 10
5184.122806965757
 20
26.07350036293342
 30
-0.0000000000000033
 11
5184.037004001423
 21
26.02101566195979
 31
-0.0000000000000033
  0
LINE
  5
170
  8
DEFAULT
 62
     5
 10
5184.037004001423
 20
26.02101566195979
 30
-0.0000000000000033
 11
5183.952592449197
 21
25.96614361214452
 31
-0.0000000000000034
  0
LINE
  5
171
  8
DEFAULT
 62
     5
 10
5183.952592449197
 20
25.96614361214452
 30
-0.0000000000000034
 11
5183.869564369557
 21
25.90887283211393
 31
-0.0000000000000034
  0
LINE
  5
172
  8
DEFAULT
 62
     5
 10
5183.869564369557
 20
25.90887283211393
 30
-0.0000000000000034
 11
5183.787911822978
 21
25.84919194049431
 31
-0.0000000000000034
  0
LINE
  5
173
  8
DEFAULT
 62
     5
 10
5183.787911822978
 20
25.84919194049431
 30
-0.0000000000000034
 11
5183.711963688957
 21
25.79053694448372
 31
-0.0000000000000035
  0
LINE
  5
174
  8
DEFAULT
 62
     5
 10
5183.711963688957
 20
25.79053694448372
 30
-0.0000000000000035
 11
5183.637232594938
 21
25.72972673192191
 31
-0.0000000000000035
  0
LINE
  5
175
  8
DEFAULT
 62
     5
 10
5183.637232594938
 20
25.72972673192191
 30
-0.0000000000000035
 11
5183.563712870254
 21
25.66677104623785
 31
-0.0000000000000036
  0
LINE
  5
176
  8
DEFAULT
 62
     5
 10
5183.563712870254
 20
25.66677104623785
 30
-0.0000000000000036
 11
5183.491398844239
 21
25.60167963086052
 31
-0.0000000000000036
  0
LINE
  5
177
  8
DEFAULT
 62
     5
 10
5183.491398844239
 20
25.60167963086052
 30
-0.0000000000000036
 11
5183.420284846226
 21
25.53446222921888
 31
-0.0000000000000037
  0
LINE
  5
178
  8
DEFAULT
 62
     5
 10
5183.420284846226
 20
25.53446222921888
 30
-0.0000000000000037
 11
5183.350365205551
 21
25.46512858474191
 31
-0.0000000000000038
  0
LINE
  5
179
  8
DEFAULT
 62
     5
 10
5183.350365205551
 20
25.46512858474191
 30
-0.0000000000000038
 11
5183.281634251545
 21
25.39368844085858
 31
-0.0000000000000038
  0
LINE
  5
17A
  8
DEFAULT
 62
     5
 10
5183.281634251545
 20
25.39368844085858
 30
-0.0000000000000038
 11
5183.214086313545
 21
25.32015154099784
 31
-0.0000000000000039
  0
LINE
  5
17B
  8
DEFAULT
 62
     5
 10
5183.214086313545
 20
25.32015154099784
 30
-0.0000000000000039
 11
5183.149902171932
 21
25.24707685295929
 31
-0.000000000000004
  0
LINE
  5
17C
  8
DEFAULT
 62
     5
 10
5183.149902171932
 20
25.24707685295929
 30
-0.000000000000004
 11
5183.086819712544
 21
25.17208594946838
 31
-0.0000000000000041
  0
LINE
  5
17D
  8
DEFAULT
 62
     5
 10
5183.086819712544
 20
25.17208594946838
 30
-0.0000000000000041
 11
5183.024840175249
 21
25.09521330610669
 31
-0.0000000000000042
  0
LINE
  5
17E
  8
DEFAULT
 62
     5
 10
5183.024840175249
 20
25.09521330610669
 30
-0.0000000000000042
 11
5182.963964799921
 21
25.01649339845581
 31
-0.0000000000000042
  0
LINE
  5
17F
  8
DEFAULT
 62
     5
 10
5182.963964799921
 20
25.01649339845581
 30
-0.0000000000000042
 11
5182.904194826431
 21
24.9359607020973
 31
-0.0000000000000044
  0
LINE
  5
180
  8
DEFAULT
 62
     5
 10
5182.904194826431
 20
24.9359607020973
 30
-0.0000000000000044
 11
5182.845531494651
 21
24.85364969261273
 31
-0.0000000000000045
  0
LINE
  5
181
  8
DEFAULT
 62
     5
 10
5182.845531494651
 20
24.85364969261273
 30
-0.0000000000000045
 11
5182.787976044454
 21
24.76959484558368
 31
-0.0000000000000046
  0
LINE
  5
182
  8
DEFAULT
 62
     5
 10
5182.787976044454
 20
24.76959484558368
 30
-0.0000000000000046
 11
5182.731529715711
 21
24.68383063659173
 31
-0.0000000000000047
  0
LINE
  5
183
  8
DEFAULT
 62
     5
 10
5182.731529715711
 20
24.68383063659173
 30
-0.0000000000000047
 11
5182.625314688676
 21
24.51294861256958
 31
-0.000000000000005
  0
LINE
  5
184
  8
DEFAULT
 62
     5
 10
5182.625314688676
 20
24.51294861256958
 30
-0.000000000000005
 11
5182.523201225797
 21
24.33614569254564
 31
-0.0000000000000053
  0
LINE
  5
185
  8
DEFAULT
 62
     5
 10
5182.523201225797
 20
24.33614569254564
 30
-0.0000000000000053
 11
5182.425122815946
 21
24.15378817043576
 31
-0.0000000000000056
  0
LINE
  5
186
  8
DEFAULT
 62
     5
 10
5182.425122815946
 20
24.15378817043576
 30
-0.0000000000000056
 11
5182.331012947994
 21
23.96624234015581
 31
-0.000000000000006
  0
LINE
  5
187
  8
DEFAULT
 62
     5
 10
5182.331012947994
 20
23.96624234015581
 30
-0.000000000000006
 11
5182.244908065007
 21
23.78292162879949
 31
-0.0000000000000064
  0
LINE
  5
188
  8
DEFAULT
 62
     5
 10
5182.244908065007
 20
23.78292162879949
 30
-0.0000000000000064
 11
5182.162115076123
 21
23.59523328872084
 31
-0.0000000000000068
  0
LINE
  5
189
  8
DEFAULT
 62
     5
 10
5182.162115076123
 20
23.59523328872084
 30
-0.0000000000000068
 11
5182.082400246645
 21
23.40319127442996
 31
-0.0000000000000073
  0
LINE
  5
18A
  8
DEFAULT
 62
     5
 10
5182.082400246645
 20
23.40319127442996
 30
-0.0000000000000073
 11
5182.00552984188
 21
23.20680954043694
 31
-0.0000000000000079
  0
LINE
  5
18B
  8
DEFAULT
 62
     5
 10
5182.00552984188
 20
23.20680954043694
 30
-0.0000000000000079
 11
5181.870484054749
 21
22.83387100552301
 31
-0.0000000000000091
  0
LINE
  5
18C
  8
DEFAULT
 62
     5
 10
5181.870484054749
 20
22.83387100552301
 30
-0.0000000000000091
 11
5181.743934306709
 21
22.45199237951445
 31
-0.0000000000000105
  0
LINE
  5
18D
  8
DEFAULT
 62
     5
 10
5181.743934306709
 20
22.45199237951445
 30
-0.0000000000000105
 11
5181.637016076365
 21
22.10083633617834
 31
-0.0000000000000121
  0
LINE
  5
18E
  8
DEFAULT
 62
     5
 10
5181.637016076365
 20
22.10083633617834
 30
-0.0000000000000121
 11
5181.591046778921
 21
21.93362264429688
 31
-0.0000000000000129
  0
LINE
  5
18F
  8
DEFAULT
 62
     5
 10
5181.591046778921
 20
21.93362264429688
 30
-0.0000000000000129
 11
5181.550230024193
 21
21.77018860965818
 31
-0.0000000000000137
  0
LINE
  5
190
  8
DEFAULT
 62
     5
 10
5181.550230024193
 20
21.77018860965818
 30
-0.0000000000000137
 11
5181.510969289191
 21
21.59383045077283
 31
-0.0000000000000145
  0
LINE
  5
191
  8
DEFAULT
 62
     5
 10
5181.510969289191
 20
21.59383045077283
 30
-0.0000000000000145
 11
5181.475929855425
 21
21.41449400308896
 31
-0.0000000000000153
  0
LINE
  5
192
  8
DEFAULT
 62
     5
 10
5181.475929855425
 20
21.41449400308896
 30
-0.0000000000000153
 11
5181.440665968657
 21
21.20515537217398
 31
-0.0000000000000163
  0
LINE
  5
193
  8
DEFAULT
 62
     5
 10
5181.440665968657
 20
21.20515537217398
 30
-0.0000000000000163
 11
5181.409718230578
 21
20.98969576854981
 31
-0.0000000000000172
  0
LINE
  5
194
  8
DEFAULT
 62
     5
 10
5181.409718230578
 20
20.98969576854981
 30
-0.0000000000000172
 11
5181.377979558398
 21
20.7276328118842
 31
-0.0000000000000182
  0
LINE
  5
195
  8
DEFAULT
 62
     5
 10
5181.377979558398
 20
20.7276328118842
 30
-0.0000000000000182
 11
5181.350712003494
 21
20.4585362360715
 31
-0.0000000000000191
  0
LINE
  5
196
  8
DEFAULT
 62
     5
 10
5181.350712003494
 20
20.4585362360715
 30
-0.0000000000000191
 11
5181.299439771661
 21
19.79050884619903
 31
-0.0000000000000212
  0
LINE
  5
197
  8
DEFAULT
 62
     5
 10
5181.299439771661
 20
19.79050884619903
 30
-0.0000000000000212
 11
5181.256316159861
 21
18.95870924125751
 31
-0.0000000000000233
  0
LINE
  5
198
  8
DEFAULT
 62
     5
 10
5181.256316159861
 20
18.95870924125751
 30
-0.0000000000000233
 11
5181.172795960349
 21
15.2174159030557
 31
-0.0000000000000292
  0
LINE
  5
199
  8
DEFAULT
 62
     5
 10
5181.172795960349
 20
15.2174159030557
 30
-0.0000000000000292
 11
5181.137192672417
 21
-0.3543034264043463
 31
-0.0000000000000352
  0
LINE
  5
19A
  8
DEFAULT
 62
     5
 10
5181.137192672417
 20
-0.3543034264043463
 30
-0.0000000000000352
 11
5178.137192672417
 21
-0.3543034264043463
 31
-0.0000000000000352
  0
LINE
  5
19B
  8
DEFAULT
 62
     7
 10
5185.713408673611
 20
-0.3543034264043463
 30
-0.0000000000000352
 11
5185.716575414917
 21
21.70231412646265
 31
-0.0000000000000019
  0
LINE
  5
19C
  8
DEFAULT
 62
     7
 10
5185.716575414917
 20
21.70231412646265
 30
-0.0000000000000019
 11
5185.665499822933
 21
23.4818289661474
 31
0.0000000000000189
  0
LINE
  5
19D
  8
DEFAULT
 62
     7
 10
5185.665499822933
 20
23.4818289661474
 30
0.0000000000000189
 11
5185.558683131088
 21
25.26103633216002
 31
0.0000000000000305
  0
LINE
  5
19E
  8
DEFAULT
 62
     7
 10
5185.558683131088
 20
25.26103633216002
 30
0.0000000000000305
 11
5185.376868173177
 21
27.32137354041439
 31
0.0000000000000344
  0
LINE
  5
19F
  8
DEFAULT
 62
     7
 10
5185.376868173177
 20
27.32137354041439
 30
0.0000000000000344
 11
5185.145366557869
 21
29.38215995748517
 31
0.0000000000000302
  0
LINE
  5
1A0
  8
DEFAULT
 62
     7
 10
5185.145366557869
 20
29.38215995748517
 30
0.0000000000000302
 11
5183.989594553241
 21
37.96232325047786
 31
-0.0000000000000124
  0
LINE
  5
1A1
  8
DEFAULT
 62
     7
 10
5183.989594553241
 20
37.96232325047786
 30
-0.0000000000000124
 11
5183.731164077328
 21
40.26414191697319
 31
-0.000000000000016
  0
LINE
  5
1A2
  8
DEFAULT
 62
     7
 10
5183.731164077328
 20
40.26414191697319
 30
-0.000000000000016
 11
5183.53233952862
 21
42.578053478802
 31
-0.0000000000000153
  0
LINE
  5
1A3
  8
DEFAULT
 62
     7
 10
5183.53233952862
 20
42.578053478802
 30
-0.0000000000000153
 11
5183.465136591177
 21
43.67585360983254
 31
-0.0000000000000137
  0
LINE
  5
1A4
  8
DEFAULT
 62
     7
 10
5183.465136591177
 20
43.67585360983254
 30
-0.0000000000000137
 11
5183.417691154562
 21
44.77576673433975
 31
-0.0000000000000116
  0
LINE
  5
1A5
  8
DEFAULT
 62
     7
 10
5183.417691154562
 20
44.77576673433975
 30
-0.0000000000000116
 11
5183.3917456814
 21
45.8593954076203
 31
-0.0000000000000092
  0
LINE
  5
1A6
  8
DEFAULT
 62
     7
 10
5183.3917456814
 20
45.8593954076203
 30
-0.0000000000000092
 11
5183.387096479355
 21
46.94365818736283
 31
-0.0000000000000067
  0
LINE
  5
1A7
  8
DEFAULT
 62
     7
 10
5183.387096479355
 20
46.94365818736283
 30
-0.0000000000000067
 11
5183.404700809456
 21
48.0530796154415
 31
-0.0000000000000042
  0
LINE
  5
1A8
  8
DEFAULT
 62
     7
 10
5183.404700809456
 20
48.0530796154415
 30
-0.0000000000000042
 11
5183.444244306475
 21
49.16144958309953
 31
-0.000000000000002
  0
LINE
  5
1A9
  8
DEFAULT
 62
     7
 10
5183.444244306475
 20
49.16144958309953
 30
-0.000000000000002
 11
5183.500771180201
 21
50.20346246057132
 31
-0.0000000000000003
  0
LINE
  5
1AA
  8
DEFAULT
 62
     7
 10
5183.500771180201
 20
50.20346246057132
 30
-0.0000000000000003
 11
5183.661086872955
 21
52.20469671126033
 31
0.0000000000000016
  0
LINE
  5
1AB
  8
DEFAULT
 62
     7
 10
5183.661086872955
 20
52.20469671126033
 30
0.0000000000000016
 11
5183.764120035861
 21
53.16492370642988
 31
0.000000000000002
  0
LINE
  5
1AC
  8
DEFAULT
 62
     7
 10
5183.764120035861
 20
53.16492370642988
 30
0.000000000000002
 11
5183.881472805488
 21
54.08276896634194
 31
0.0000000000000022
  0
LINE
  5
1AD
  8
DEFAULT
 62
     7
 10
5183.881472805488
 20
54.08276896634194
 30
0.0000000000000022
 11
5184.02149452626
 21
55.00133353537088
 31
0.0000000000000021
  0
LINE
  5
1AE
  8
DEFAULT
 62
     7
 10
5184.02149452626
 20
55.00133353537088
 30
0.0000000000000021
 11
5184.171066834523
 21
55.82463041949265
 31
0.0000000000000019
  0
LINE
  5
1AF
  8
DEFAULT
 62
     7
 10
5184.171066834523
 20
55.82463041949265
 30
0.0000000000000019
 11
5184.25747988043
 21
56.2372661011949
 31
0.0000000000000017
  0
LINE
  5
1B0
  8
DEFAULT
 62
     7
 10
5184.25747988043
 20
56.2372661011949
 30
0.0000000000000017
 11
5184.353475613416
 21
56.65088098696964
 31
0.0000000000000015
  0
LINE
  5
1B1
  8
DEFAULT
 62
     7
 10
5184.353475613416
 20
56.65088098696964
 30
0.0000000000000015
 11
5184.446511320913
 21
57.0129645497945
 31
0.0000000000000013
  0
LINE
  5
1B2
  8
DEFAULT
 62
     7
 10
5184.446511320913
 20
57.0129645497945
 30
0.0000000000000013
 11
5184.550861727468
 21
57.37665888885645
 31
0.0000000000000011
  0
LINE
  5
1B3
  8
DEFAULT
 62
     7
 10
5184.550861727468
 20
57.37665888885645
 30
0.0000000000000011
 11
5184.601249169391
 21
57.53760508600192
 31
0.000000000000001
  0
LINE
  5
1B4
  8
DEFAULT
 62
     7
 10
5184.601249169391
 20
57.53760508600192
 30
0.000000000000001
 11
5184.654984258088
 21
57.69914828994433
 31
0.0000000000000009
  0
LINE
  5
1B5
  8
DEFAULT
 62
     7
 10
5184.654984258088
 20
57.69914828994433
 30
0.0000000000000009
 11
5184.712641930488
 21
57.86144053465709
 31
0.0000000000000008
  0
LINE
  5
1B6
  8
DEFAULT
 62
     7
 10
5184.712641930488
 20
57.86144053465709
 30
0.0000000000000008
 11
5184.77479712352
 21
58.02463385411365
 31
0.0000000000000006
  0
LINE
  5
1B7
  8
DEFAULT
 62
     7
 10
5184.77479712352
 20
58.02463385411365
 30
0.0000000000000006
 11
5184.83178266383
 21
58.16436397991221
 31
0.0000000000000005
  0
LINE
  5
1B8
  8
DEFAULT
 62
     7
 10
5184.83178266383
 20
58.16436397991221
 30
0.0000000000000005
 11
5184.893529522689
 21
58.30517433576149
 31
0.0000000000000004
  0
LINE
  5
1B9
  8
DEFAULT
 62
     7
 10
5184.893529522689
 20
58.30517433576149
 30
0.0000000000000004
 11
5184.961125969779
 21
58.44738257859254
 31
0.0000000000000003
  0
LINE
  5
1BA
  8
DEFAULT
 62
     7
 10
5184.961125969779
 20
58.44738257859254
 30
0.0000000000000003
 11
5184.997457873184
 21
58.51911017541716
 31
0.0000000000000002
  0
LINE
  5
1BB
  8
DEFAULT
 62
     7
 10
5184.997457873184
 20
58.51911017541716
 30
0.0000000000000002
 11
5185.035660274774
 21
58.59130636533637
 31
0.0000000000000002
  0
LINE
  5
1BC
  8
DEFAULT
 62
     7
 10
5185.035660274774
 20
58.59130636533637
 30
0.0000000000000002
 11
5185.068384160015
 21
58.65064620294704
 31
0.0000000000000001
  0
LINE
  5
1BD
  8
DEFAULT
 62
     7
 10
5185.068384160015
 20
58.65064620294704
 30
0.0000000000000001
 11
5185.102765907237
 21
58.71035063528783
 31
0.0
  0
LINE
  5
1BE
  8
DEFAULT
 62
     7
 10
5185.102765907237
 20
58.71035063528783
 30
0.0
 11
5185.139124966546
 21
58.77044520688929
 31
0.0
  0
LINE
  5
1BF
  8
DEFAULT
 62
     7
 10
5185.139124966546
 20
58.77044520688929
 30
0.0
 11
5185.177780788048
 21
58.83095546228196
 31
-0.0000000000000001
  0
LINE
  5
1C0
  8
DEFAULT
 62
     7
 10
5185.177780788048
 20
58.83095546228196
 30
-0.0000000000000001
 11
5185.219052821847
 21
58.89190694599638
 31
-0.0000000000000001
  0
LINE
  5
1C1
  8
DEFAULT
 62
     7
 10
5185.219052821847
 20
58.89190694599638
 30
-0.0000000000000001
 11
5185.263260518048
 21
58.95332520256308
 31
-0.0000000000000002
  0
LINE
  5
1C2
  8
DEFAULT
 62
     7
 10
5185.263260518048
 20
58.95332520256308
 30
-0.0000000000000002
 11
5185.310723326755
 21
59.01523577651262
 31
-0.0000000000000003
  0
LINE
  5
1C3
  8
DEFAULT
 62
     7
 10
5185.310723326755
 20
59.01523577651262
 30
-0.0000000000000003
 11
5185.361760698073
 21
59.07766421237553
 31
-0.0000000000000003
  0
LINE
  5
1C4
  8
DEFAULT
 62
     7
 10
5185.361760698073
 20
59.07766421237553
 30
-0.0000000000000003
 11
5185.405069888565
 21
59.12755923522815
 31
-0.0000000000000004
  0
LINE
  5
1C5
  8
DEFAULT
 62
     7
 10
5185.405069888565
 20
59.12755923522815
 30
-0.0000000000000004
 11
5185.451353721715
 21
59.17767742159965
 31
-0.0000000000000004
  0
LINE
  5
1C6
  8
DEFAULT
 62
     7
 10
5185.451353721715
 20
59.17767742159965
 30
-0.0000000000000004
 11
5185.475774672384
 21
59.20278304043254
 31
-0.0000000000000004
  0
LINE
  5
1C7
  8
DEFAULT
 62
     7
 10
5185.475774672384
 20
59.20278304043254
 30
-0.0000000000000004
 11
5185.501135535429
 21
59.22789985733822
 31
-0.0000000000000005
  0
LINE
  5
1C8
  8
DEFAULT
 62
     7
 10
5185.501135535429
 20
59.22789985733822
 30
-0.0000000000000005
 11
5185.527501728093
 21
59.25301300804769
 31
-0.0000000000000005
  0
LINE
  5
1C9
  8
DEFAULT
 62
     7
 10
5185.527501728093
 20
59.25301300804769
 30
-0.0000000000000005
 11
5185.554938667613
 21
59.27810762829199
 31
-0.0000000000000005
  0
LINE
  5
1CA
  8
DEFAULT
 62
     7
 10
5185.554938667613
 20
59.27810762829199
 30
-0.0000000000000005
 11
5185.583513161819
 21
59.3031589493179
 31
-0.0000000000000006
  0
LINE
  5
1CB
  8
DEFAULT
 62
     7
 10
5185.583513161819
 20
59.3031589493179
 30
-0.0000000000000006
 11
5185.613297580923
 21
59.32810258443536
 31
-0.0000000000000006
  0
LINE
  5
1CC
  8
DEFAULT
 62
     7
 10
5185.613297580923
 20
59.32810258443536
 30
-0.0000000000000006
 11
5185.644365685727
 21
59.35286424247004
 31
-0.0000000000000006
  0
LINE
  5
1CD
  8
DEFAULT
 62
     7
 10
5185.644365685727
 20
59.35286424247004
 30
-0.0000000000000006
 11
5185.676791237035
 21
59.37736963224764
 31
-0.0000000000000006
  0
LINE
  5
1CE
  8
DEFAULT
 62
     7
 10
5185.676791237035
 20
59.37736963224764
 30
-0.0000000000000006
 11
5185.710647995649
 21
59.40154446259386
 31
-0.0000000000000007
  0
LINE
  5
1CF
  8
DEFAULT
 62
     7
 10
5185.710647995649
 20
59.40154446259386
 30
-0.0000000000000007
 11
5185.746009722372
 21
59.42531444233438
 31
-0.0000000000000007
  0
LINE
  5
1D0
  8
DEFAULT
 62
     7
 10
5185.746009722372
 20
59.42531444233438
 30
-0.0000000000000007
 11
5185.782950178008
 21
59.44860528029491
 31
-0.0000000000000007
  0
LINE
  5
1D1
  8
DEFAULT
 62
     7
 10
5185.782950178008
 20
59.44860528029491
 30
-0.0000000000000007
 11
5185.82154312336
 21
59.47134268530115
 31
-0.0000000000000007
  0
LINE
  5
1D2
  8
DEFAULT
 62
     7
 10
5185.82154312336
 20
59.47134268530115
 30
-0.0000000000000007
 11
5185.854537847833
 21
59.48955202516029
 31
-0.0000000000000008
  0
LINE
  5
1D3
  8
DEFAULT
 62
     7
 10
5185.854537847833
 20
59.48955202516029
 30
-0.0000000000000008
 11
5185.888672025037
 21
59.50723392427359
 31
-0.0000000000000008
  0
LINE
  5
1D4
  8
DEFAULT
 62
     7
 10
5185.888672025037
 20
59.50723392427359
 30
-0.0000000000000008
 11
5185.923919183424
 21
59.52428491210915
 31
-0.0000000000000008
  0
LINE
  5
1D5
  8
DEFAULT
 62
     7
 10
5185.923919183424
 20
59.52428491210915
 30
-0.0000000000000008
 11
5185.960252851445
 21
59.54060151813508
 31
-0.0000000000000008
  0
LINE
  5
1D6
  8
DEFAULT
 62
     7
 10
5185.960252851445
 20
59.54060151813508
 30
-0.0000000000000008
 11
5185.997646557553
 21
59.55608027181953
 31
-0.0000000000000008
  0
LINE
  5
1D7
  8
DEFAULT
 62
     7
 10
5185.997646557553
 20
59.55608027181953
 30
-0.0000000000000008
 11
5186.036073830201
 21
59.57061770263062
 31
-0.0000000000000008
  0
LINE
  5
1D8
  8
DEFAULT
 62
     7
 10
5186.036073830201
 20
59.57061770263062
 30
-0.0000000000000008
 11
5186.075508197838
 21
59.58411034003647
 31
-0.0000000000000009
  0
LINE
  5
1D9
  8
DEFAULT
 62
     7
 10
5186.075508197838
 20
59.58411034003647
 30
-0.0000000000000009
 11
5186.115923188918
 21
59.59645471350519
 31
-0.0000000000000009
  0
LINE
  5
1DA
  8
DEFAULT
 62
     7
 10
5186.115923188918
 20
59.59645471350519
 30
-0.0000000000000009
 11
5186.157276784427
 21
59.60755563539144
 31
-0.0000000000000009
  0
LINE
  5
1DB
  8
DEFAULT
 62
     7
 10
5186.157276784427
 20
59.60755563539144
 30
-0.0000000000000009
 11
5186.199464775493
 21
59.61735104959598
 31
-0.0000000000000009
  0
LINE
  5
1DC
  8
DEFAULT
 62
     7
 10
5186.199464775493
 20
59.61735104959598
 30
-0.0000000000000009
 11
5186.242367405775
 21
59.62578718290611
 31
-0.0000000000000009
  0
LINE
  5
1DD
  8
DEFAULT
 62
     7
 10
5186.242367405775
 20
59.62578718290611
 30
-0.0000000000000009
 11
5186.285864918938
 21
59.6328102621091
 31
-0.0000000000000009
  0
LINE
  5
1DE
  8
DEFAULT
 62
     7
 10
5186.285864918938
 20
59.6328102621091
 30
-0.0000000000000009
 11
5186.329837558642
 21
59.63836651399227
 31
-0.0000000000000009
  0
LINE
  5
1DF
  8
DEFAULT
 62
     7
 10
5186.329837558642
 20
59.63836651399227
 30
-0.0000000000000009
 11
5186.351964627091
 21
59.64057777555993
 31
-0.0000000000000009
  0
LINE
  5
1E0
  8
DEFAULT
 62
     7
 10
5186.351964627091
 20
59.64057777555993
 30
-0.0000000000000009
 11
5186.374165568547
 21
59.64240216534287
 31
-0.0000000000000009
  0
LINE
  5
1E1
  8
DEFAULT
 62
     7
 10
5186.374165568547
 20
59.64240216534287
 30
-0.0000000000000009
 11
5186.39642541347
 21
59.6438329616895
 31
-0.0000000000000009
  0
LINE
  5
1E2
  8
DEFAULT
 62
     7
 10
5186.39642541347
 20
59.6438329616895
 30
-0.0000000000000009
 11
5186.418729192317
 21
59.64486344294822
 31
-0.0000000000000009
  0
LINE
  5
1E3
  8
DEFAULT
 62
     7
 10
5186.418729192317
 20
59.64486344294822
 30
-0.0000000000000009
 11
5186.441061935544
 21
59.64548688746746
 31
-0.0000000000000009
  0
LINE
  5
1E4
  8
DEFAULT
 62
     7
 10
5186.441061935544
 20
59.64548688746746
 30
-0.0000000000000009
 11
5186.463408673611
 21
59.64569657359561
 31
-0.0000000000000009
  0
LINE
  5
1E5
  8
DEFAULT
 62
     7
 10
5186.463408673611
 20
59.64569657359561
 30
-0.0000000000000009
 11
5186.48575446079
 21
59.64548802648775
 31
-0.0000000000000009
  0
LINE
  5
1E6
  8
DEFAULT
 62
     7
 10
5186.48575446079
 20
59.64548802648775
 30
-0.0000000000000009
 11
5186.508084446612
 21
59.64486575852557
 31
-0.0000000000000009
  0
LINE
  5
1E7
  8
DEFAULT
 62
     7
 10
5186.508084446612
 20
59.64486575852557
 30
-0.0000000000000009
 11
5186.530383804424
 21
59.64383652889743
 31
-0.0000000000000009
  0
LINE
  5
1E8
  8
DEFAULT
 62
     7
 10
5186.530383804424
 20
59.64383652889743
 30
-0.0000000000000009
 11
5186.552637707573
 21
59.64240709679169
 31
-0.0000000000000009
  0
LINE
  5
1E9
  8
DEFAULT
 62
     7
 10
5186.552637707573
 20
59.64240709679169
 30
-0.0000000000000009
 11
5186.574831329406
 21
59.64058422139669
 31
-0.0000000000000009
  0
LINE
  5
1EA
  8
DEFAULT
 62
     7
 10
5186.574831329406
 20
59.64058422139669
 30
-0.0000000000000009
 11
5186.596949843269
 21
59.63837466190078
 31
-0.0000000000000009
  0
LINE
  5
1EB
  8
DEFAULT
 62
     7
 10
5186.596949843269
 20
59.63837466190078
 30
-0.0000000000000009
 11
5186.640902240472
 21
59.63282252735967
 31
-0.0000000000000009
  0
LINE
  5
1EC
  8
DEFAULT
 62
     7
 10
5186.640902240472
 20
59.63282252735967
 30
-0.0000000000000009
 11
5186.684376285959
 21
59.62580476667518
 31
-0.0000000000000009
  0
LINE
  5
1ED
  8
DEFAULT
 62
     7
 10
5186.684376285959
 20
59.62580476667518
 30
-0.0000000000000009
 11
5186.727253366501
 21
59.61737545335414
 31
-0.0000000000000009
  0
LINE
  5
1EE
  8
DEFAULT
 62
     7
 10
5186.727253366501
 20
59.61737545335414
 30
-0.0000000000000009
 11
5186.769414868873
 21
59.60758866090336
 31
-0.0000000000000009
  0
LINE
  5
1EF
  8
DEFAULT
 62
     7
 10
5186.769414868873
 20
59.60758866090336
 30
-0.0000000000000009
 11
5186.810742179849
 21
59.59649846282967
 31
-0.0000000000000009
  0
LINE
  5
1F0
  8
DEFAULT
 62
     7
 10
5186.810742179849
 20
59.59649846282967
 30
-0.0000000000000009
 11
5186.85113207569
 21
59.58416707847753
 31
-0.0000000000000009
  0
LINE
  5
1F1
  8
DEFAULT
 62
     7
 10
5186.85113207569
 20
59.58416707847753
 30
-0.0000000000000009
 11
5186.890542890615
 21
59.57068931054185
 31
-0.0000000000000008
  0
LINE
  5
1F2
  8
DEFAULT
 62
     7
 10
5186.890542890615
 20
59.57068931054185
 30
-0.0000000000000008
 11
5186.928948348324
 21
59.55616810755518
 31
-0.0000000000000008
  0
LINE
  5
1F3
  8
DEFAULT
 62
     7
 10
5186.928948348324
 20
59.55616810755518
 30
-0.0000000000000008
 11
5186.966322172524
 21
59.54070641805007
 31
-0.0000000000000008
  0
LINE
  5
1F4
  8
DEFAULT
 62
     7
 10
5186.966322172524
 20
59.54070641805007
 30
-0.0000000000000008
 11
5187.002638086919
 21
59.52440719055907
 31
-0.0000000000000008
  0
LINE
  5
1F5
  8
DEFAULT
 62
     7
 10
5187.002638086919
 20
59.52440719055907
 30
-0.0000000000000008
 11
5187.037869815211
 21
59.50737337361473
 31
-0.0000000000000008
  0
LINE
  5
1F6
  8
DEFAULT
 62
     7
 10
5187.037869815211
 20
59.50737337361473
 30
-0.0000000000000008
 11
5187.071991081108
 21
59.48970791574959
 31
-0.0000000000000008
  0
LINE
  5
1F7
  8
DEFAULT
 62
     7
 10
5187.071991081108
 20
59.48970791574959
 30
-0.0000000000000008
 11
5187.104975608308
 21
59.4715137654962
 31
-0.0000000000000007
  0
LINE
  5
1F8
  8
DEFAULT
 62
     7
 10
5187.104975608308
 20
59.4715137654962
 30
-0.0000000000000007
 11
5187.14356003705
 21
59.44879253588774
 31
-0.0000000000000007
  0
LINE
  5
1F9
  8
DEFAULT
 62
     7
 10
5187.14356003705
 20
59.44879253588774
 30
-0.0000000000000007
 11
5187.180496326872
 21
59.42551512142279
 31
-0.0000000000000007
  0
LINE
  5
1FA
  8
DEFAULT
 62
     7
 10
5187.180496326872
 20
59.42551512142279
 30
-0.0000000000000007
 11
5187.21585828193
 21
59.40175568740161
 31
-0.0000000000000007
  0
LINE
  5
1FB
  8
DEFAULT
 62
     7
 10
5187.21585828193
 20
59.40175568740161
 30
-0.0000000000000007
 11
5187.249719706373
 21
59.37758839912443
 31
-0.0000000000000006
  0
LINE
  5
1FC
  8
DEFAULT
 62
     7
 10
5187.249719706373
 20
59.37758839912443
 30
-0.0000000000000006
 11
5187.282154404353
 21
59.35308742189149
 31
-0.0000000000000006
  0
LINE
  5
1FD
  8
DEFAULT
 62
     7
 10
5187.282154404353
 20
59.35308742189149
 30
-0.0000000000000006
 11
5187.313236180021
 21
59.32832692100306
 31
-0.0000000000000006
  0
LINE
  5
1FE
  8
DEFAULT
 62
     7
 10
5187.313236180021
 20
59.32832692100306
 30
-0.0000000000000006
 11
5187.343038837526
 21
59.30338106175937
 31
-0.0000000000000006
  0
LINE
  5
1FF
  8
DEFAULT
 62
     7
 10
5187.343038837526
 20
59.30338106175937
 30
-0.0000000000000006
 11
5187.371636181021
 21
59.27832400946066
 31
-0.0000000000000005
  0
LINE
  5
200
  8
DEFAULT
 62
     7
 10
5187.371636181021
 20
59.27832400946066
 30
-0.0000000000000005
 11
5187.399100372972
 21
59.25322013119367
 31
-0.0000000000000005
  0
LINE
  5
201
  8
DEFAULT
 62
     7
 10
5187.399100372972
 20
59.25322013119367
 30
-0.0000000000000005
 11
5187.425497009111
 21
59.22809460119112
 31
-0.0000000000000005
  0
LINE
  5
202
  8
DEFAULT
 62
     7
 10
5187.425497009111
 20
59.22809460119112
 30
-0.0000000000000005
 11
5187.450890043487
 21
59.2029627954722
 31
-0.0000000000000004
  0
LINE
  5
203
  8
DEFAULT
 62
     7
 10
5187.450890043487
 20
59.2029627954722
 30
-0.0000000000000004
 11
5187.475343430147
 21
59.17784009005612
 31
-0.0000000000000004
  0
LINE
  5
204
  8
DEFAULT
 62
     7
 10
5187.475343430147
 20
59.17784009005612
 30
-0.0000000000000004
 11
5187.521687076519
 21
59.12768348420924
 31
-0.0000000000000004
  0
LINE
  5
205
  8
DEFAULT
 62
     7
 10
5187.521687076519
 20
59.12768348420924
 30
-0.0000000000000004
 11
5187.565039580613
 21
59.0777477918041
 31
-0.0000000000000003
  0
LINE
  5
206
  8
DEFAULT
 62
     7
 10
5187.565039580613
 20
59.0777477918041
 30
-0.0000000000000003
 11
5187.616095395713
 21
59.01527026538795
 31
-0.0000000000000003
  0
LINE
  5
207
  8
DEFAULT
 62
     7
 10
5187.616095395713
 20
59.01527026538795
 30
-0.0000000000000003
 11
5187.66354126662
 21
58.95331594061096
 31
-0.0000000000000002
  0
LINE
  5
208
  8
DEFAULT
 62
     7
 10
5187.66354126662
 20
58.95331594061096
 30
-0.0000000000000002
 11
5187.707706067038
 21
58.89186168350746
 31
-0.0000000000000001
  0
LINE
  5
209
  8
DEFAULT
 62
     7
 10
5187.707706067038
 20
58.89186168350746
 30
-0.0000000000000001
 11
5187.748918670673
 21
58.83088436011187
 31
-0.0000000000000001
  0
LINE
  5
20A
  8
DEFAULT
 62
     7
 10
5187.748918670673
 20
58.83088436011187
 30
-0.0000000000000001
 11
5187.787507951229
 21
58.77036083645855
 31
0.0
  0
LINE
  5
20B
  8
DEFAULT
 62
     7
 10
5187.787507951229
 20
58.77036083645855
 30
0.0
 11
5187.823802782409
 21
58.7102679785819
 31
0.0
  0
LINE
  5
20C
  8
DEFAULT
 62
     7
 10
5187.823802782409
 20
58.7102679785819
 30
0.0
 11
5187.85813203792
 21
58.65058265251629
 31
0.0000000000000001
  0
LINE
  5
20D
  8
DEFAULT
 62
     7
 10
5187.85813203792
 20
58.65058265251629
 30
0.0000000000000001
 11
5187.890824591466
 21
58.59128172429612
 31
0.0000000000000002
  0
LINE
  5
20E
  8
DEFAULT
 62
     7
 10
5187.890824591466
 20
58.59128172429612
 30
0.0000000000000002
 11
5187.965390148146
 21
58.44751856956038
 31
0.0000000000000003
  0
LINE
  5
20F
  8
DEFAULT
 62
     7
 10
5187.965390148146
 20
58.44751856956038
 30
0.0000000000000003
 11
5188.033097302335
 21
58.30543934723232
 31
0.0000000000000004
  0
LINE
  5
210
  8
DEFAULT
 62
     7
 10
5188.033097302335
 20
58.30543934723232
 30
0.0000000000000004
 11
5188.094941919505
 21
58.16460974157356
 31
0.0000000000000005
  0
LINE
  5
211
  8
DEFAULT
 62
     7
 10
5188.094941919505
 20
58.16460974157356
 30
0.0000000000000005
 11
5188.151966036434
 21
58.02478808759312
 31
0.0000000000000006
  0
LINE
  5
212
  8
DEFAULT
 62
     7
 10
5188.151966036434
 20
58.02478808759312
 30
0.0000000000000006
 11
5188.214073936707
 21
57.86152647270151
 31
0.0000000000000008
  0
LINE
  5
213
  8
DEFAULT
 62
     7
 10
5188.214073936707
 20
57.86152647270151
 30
0.0000000000000008
 11
5188.271678006828
 21
57.69922125117783
 31
0.0000000000000009
  0
LINE
  5
214
  8
DEFAULT
 62
     7
 10
5188.271678006828
 20
57.69922125117783
 30
0.0000000000000009
 11
5188.375906552074
 21
57.37677790695172
 31
0.0000000000000011
  0
LINE
  5
215
  8
DEFAULT
 62
     7
 10
5188.375906552074
 20
57.37677790695172
 30
0.0000000000000011
 11
5188.480384385401
 21
57.0130650745985
 31
0.0000000000000013
  0
LINE
  5
216
  8
DEFAULT
 62
     7
 10
5188.480384385401
 20
57.0130650745985
 30
0.0000000000000013
 11
5188.573491806957
 21
56.65100174700137
 31
0.0000000000000015
  0
LINE
  5
217
  8
DEFAULT
 62
     7
 10
5188.573491806957
 20
56.65100174700137
 30
0.0000000000000015
 11
5188.665845914749
 21
56.25286475283869
 31
0.0000000000000017
  0
LINE
  5
218
  8
DEFAULT
 62
     7
 10
5188.665845914749
 20
56.25286475283869
 30
0.0000000000000017
 11
5188.749248389518
 21
55.85563551565811
 31
0.0000000000000019
  0
LINE
  5
219
  8
DEFAULT
 62
     7
 10
5188.749248389518
 20
55.85563551565811
 30
0.0000000000000019
 11
5188.905270841981
 21
55.00153544643902
 31
0.0000000000000021
  0
LINE
  5
21A
  8
DEFAULT
 62
     7
 10
5188.905270841981
 20
55.00153544643902
 30
0.0000000000000021
 11
5189.045282190379
 21
54.08287043587033
 31
0.0000000000000022
  0
LINE
  5
21B
  8
DEFAULT
 62
     7
 10
5189.045282190379
 20
54.08287043587033
 30
0.0000000000000022
 11
5189.162681200979
 21
53.16480584424463
 31
0.000000000000002
  0
LINE
  5
21C
  8
DEFAULT
 62
     7
 10
5189.162681200979
 20
53.16480584424463
 30
0.000000000000002
 11
5189.26576804933
 21
52.20463558221986
 31
0.0000000000000016
  0
LINE
  5
21D
  8
DEFAULT
 62
     7
 10
5189.26576804933
 20
52.20463558221986
 30
0.0000000000000016
 11
5189.425886274509
 21
50.20364445826499
 31
-0.0000000000000003
  0
LINE
  5
21E
  8
DEFAULT
 62
     7
 10
5189.425886274509
 20
50.20364445826499
 30
-0.0000000000000003
 11
5189.482574372661
 21
49.1615945751483
 31
-0.000000000000002
  0
LINE
  5
21F
  8
DEFAULT
 62
     7
 10
5189.482574372661
 20
49.1615945751483
 30
-0.000000000000002
 11
5189.52217075436
 21
48.05321260580726
 31
-0.0000000000000042
  0
LINE
  5
220
  8
DEFAULT
 62
     7
 10
5189.52217075436
 20
48.05321260580726
 30
-0.0000000000000042
 11
5189.539719301351
 21
46.94380727666519
 31
-0.0000000000000067
  0
LINE
  5
221
  8
DEFAULT
 62
     7
 10
5189.539719301351
 20
46.94380727666519
 30
-0.0000000000000067
 11
5189.535061712302
 21
45.85955573467594
 31
-0.0000000000000092
  0
LINE
  5
222
  8
DEFAULT
 62
     7
 10
5189.535061712302
 20
45.85955573467594
 30
-0.0000000000000092
 11
5189.509143358719
 21
44.77589620012839
 31
-0.0000000000000116
  0
LINE
  5
223
  8
DEFAULT
 62
     7
 10
5189.509143358719
 20
44.77589620012839
 30
-0.0000000000000116
 11
5189.461709984794
 21
43.67586285384741
 31
-0.0000000000000137
  0
LINE
  5
224
  8
DEFAULT
 62
     7
 10
5189.461709984794
 20
43.67586285384741
 30
-0.0000000000000137
 11
5189.394476422224
 21
42.57786103637444
 31
-0.0000000000000153
  0
LINE
  5
225
  8
DEFAULT
 62
     7
 10
5189.394476422224
 20
42.57786103637444
 30
-0.0000000000000153
 11
5189.1956394237
 21
40.26399267831641
 31
-0.000000000000016
  0
LINE
  5
226
  8
DEFAULT
 62
     7
 10
5189.1956394237
 20
40.26399267831641
 30
-0.000000000000016
 11
5188.937229989044
 21
37.96239020588359
 31
-0.0000000000000124
  0
LINE
  5
227
  8
DEFAULT
 62
     7
 10
5188.937229989044
 20
37.96239020588359
 30
-0.0000000000000124
 11
5187.78146105315
 21
29.38224620149922
 31
0.0000000000000302
  0
LINE
  5
228
  8
DEFAULT
 62
     7
 10
5187.78146105315
 20
29.38224620149922
 30
0.0000000000000302
 11
5187.54999729902
 21
27.32170822585335
 31
0.0000000000000344
  0
LINE
  5
229
  8
DEFAULT
 62
     7
 10
5187.54999729902
 20
27.32170822585335
 30
0.0000000000000344
 11
5187.368136494031
 21
25.2610608279898
 31
0.0000000000000305
  0
LINE
  5
22A
  8
DEFAULT
 62
     7
 10
5187.368136494031
 20
25.2610608279898
 30
0.0000000000000305
 11
5187.247452293688
 21
23.15476040896426
 31
0.0000000000000159
  0
LINE
  5
22B
  8
DEFAULT
 62
     7
 10
5187.247452293688
 20
23.15476040896426
 30
0.0000000000000159
 11
5187.210409153271
 21
21.7033240357158
 31
-0.0000000000000019
  0
LINE
  5
22C
  8
DEFAULT
 62
     7
 10
5187.210409153271
 20
21.7033240357158
 30
-0.0000000000000019
 11
5187.213408673611
 21
0.6762723982564777
 31
-0.0000000000000352
  0
LINE
  5
22D
  8
DEFAULT
 62
     7
 10
5187.213408673611
 20
0.6762723982564778
 30
-0.0000000000000352
 11
5185.713408673611
 21
0.6762723982573712
 31
-0.0000000000000352
  0
LINE
  5
22E
  8
DEFAULT
 62
     7
 10
5185.713408673611
 20
0.6762723982573711
 30
-0.0000000000000352
 11
5185.710502704307
 21
21.72018009139413
 31
-0.0000000000000016
  0
LINE
  5
22F
  8
DEFAULT
 62
     7
 10
5185.710502704307
 20
21.72018009139413
 30
-0.0000000000000016
 11
5185.748609283874
 21
23.21347115896382
 31
0.0000000000000166
  0
LINE
  5
230
  8
DEFAULT
 62
     7
 10
5185.748609283874
 20
23.21347115896382
 30
0.0000000000000166
 11
5185.872241442183
 21
25.37201902724664
 31
0.0000000000000317
  0
LINE
  5
231
  8
DEFAULT
 62
     7
 10
5185.872241442183
 20
25.37201902724664
 30
0.0000000000000317
 11
5186.057634407012
 21
27.47289463336131
 31
0.0000000000000356
  0
LINE
  5
232
  8
DEFAULT
 62
     7
 10
5186.057634407012
 20
27.47289463336131
 30
0.0000000000000356
 11
5186.292526708917
 21
29.56411091181803
 31
0.0000000000000314
  0
LINE
  5
233
  8
DEFAULT
 62
     7
 10
5186.292526708917
 20
29.56411091181803
 30
0.0000000000000314
 11
5187.448383231302
 21
38.14491631491117
 31
-0.0000000000000113
  0
LINE
  5
234
  8
DEFAULT
 62
     7
 10
5187.448383231302
 20
38.14491631491117
 30
-0.0000000000000113
 11
5187.703152112667
 21
40.41403933858906
 31
-0.0000000000000148
  0
LINE
  5
235
  8
DEFAULT
 62
     7
 10
5187.703152112667
 20
40.41403933858906
 30
-0.0000000000000148
 11
5187.898137463995
 21
42.68242998491123
 31
-0.0000000000000141
  0
LINE
  5
236
  8
DEFAULT
 62
     7
 10
5187.898137463995
 20
42.68242998491123
 30
-0.0000000000000141
 11
5187.963766058518
 21
43.75437395963884
 31
-0.0000000000000126
  0
LINE
  5
237
  8
DEFAULT
 62
     7
 10
5187.963766058518
 20
43.75437395963884
 30
-0.0000000000000126
 11
5188.009987459862
 21
44.82627667205482
 31
-0.0000000000000105
  0
LINE
  5
238
  8
DEFAULT
 62
     7
 10
5188.009987459862
 20
44.82627667205482
 30
-0.0000000000000105
 11
5188.035215578066
 21
45.88083328397362
 31
-0.0000000000000082
  0
LINE
  5
239
  8
DEFAULT
 62
     7
 10
5188.035215578066
 20
45.88083328397362
 30
-0.0000000000000082
 11
5188.039743349163
 21
46.93531411560237
 31
-0.0000000000000057
  0
LINE
  5
23A
  8
DEFAULT
 62
     7
 10
5188.039743349163
 20
46.93531411560237
 30
-0.0000000000000057
 11
5188.022675610764
 21
48.01439879644352
 31
-0.0000000000000033
  0
LINE
  5
23B
  8
DEFAULT
 62
     7
 10
5188.022675610764
 20
48.01439879644352
 30
-0.0000000000000033
 11
5187.984121910489
 21
49.09342917447
 31
-0.0000000000000011
  0
LINE
  5
23C
  8
DEFAULT
 62
     7
 10
5187.984121910489
 20
49.09342917447
 30
-0.0000000000000011
 11
5187.856028558479
 21
51.12399398727544
 31
0.0000000000000016
  0
LINE
  5
23D
  8
DEFAULT
 62
     7
 10
5187.856028558479
 20
51.12399398727544
 30
0.0000000000000016
 11
5187.772881569952
 21
52.05867234577261
 31
0.0000000000000023
  0
LINE
  5
23E
  8
DEFAULT
 62
     7
 10
5187.772881569952
 20
52.05867234577261
 30
0.0000000000000023
 11
5187.672892310018
 21
52.99010664662771
 31
0.0000000000000027
  0
LINE
  5
23F
  8
DEFAULT
 62
     7
 10
5187.672892310018
 20
52.99010664662771
 30
0.0000000000000027
 11
5187.559618955477
 21
53.8759773415871
 31
0.0000000000000029
  0
LINE
  5
240
  8
DEFAULT
 62
     7
 10
5187.559618955477
 20
53.8759773415871
 30
0.0000000000000029
 11
5187.425687678986
 21
54.7548905056178
 31
0.0000000000000028
  0
LINE
  5
241
  8
DEFAULT
 62
     7
 10
5187.425687678986
 20
54.7548905056178
 30
0.0000000000000028
 11
5187.278477161733
 21
55.56096076778503
 31
0.0000000000000026
  0
LINE
  5
242
  8
DEFAULT
 62
     7
 10
5187.278477161733
 20
55.56096076778503
 30
0.0000000000000026
 11
5187.200942065837
 21
55.93024191061765
 31
0.0000000000000025
  0
LINE
  5
243
  8
DEFAULT
 62
     7
 10
5187.200942065837
 20
55.93024191061765
 30
0.0000000000000025
 11
5187.116345530736
 21
56.29503960820627
 31
0.0000000000000023
  0
LINE
  5
244
  8
DEFAULT
 62
     7
 10
5187.116345530736
 20
56.29503960820627
 30
0.0000000000000023
 11
5187.032627127832
 21
56.62063810921835
 31
0.0000000000000021
  0
LINE
  5
245
  8
DEFAULT
 62
     7
 10
5187.032627127832
 20
56.62063810921835
 30
0.0000000000000021
 11
5186.941088173687
 21
56.93940205282115
 31
0.0000000000000019
  0
LINE
  5
246
  8
DEFAULT
 62
     7
 10
5186.941088173687
 20
56.93940205282115
 30
0.0000000000000019
 11
5186.852952403351
 21
57.21217129271416
 31
0.0000000000000017
  0
LINE
  5
247
  8
DEFAULT
 62
     7
 10
5186.852952403351
 20
57.21217129271416
 30
0.0000000000000017
 11
5186.80592466933
 21
57.34474919942627
 31
0.0000000000000016
  0
LINE
  5
248
  8
DEFAULT
 62
     7
 10
5186.80592466933
 20
57.34474919942627
 30
0.0000000000000016
 11
5186.756743547283
 21
57.47398798492264
 31
0.0000000000000015
  0
LINE
  5
249
  8
DEFAULT
 62
     7
 10
5186.756743547283
 20
57.47398798492264
 30
0.0000000000000015
 11
5186.71313687476
 21
57.58072426495775
 31
0.0000000000000015
  0
LINE
  5
24A
  8
DEFAULT
 62
     7
 10
5186.71313687476
 20
57.58072426495775
 30
0.0000000000000015
 11
5186.668036462765
 21
57.68366052460043
 31
0.0000000000000014
  0
LINE
  5
24B
  8
DEFAULT
 62
     7
 10
5186.668036462765
 20
57.68366052460043
 30
0.0000000000000014
 11
5186.621554044451
 21
57.7819005508133
 31
0.0000000000000013
  0
LINE
  5
24C
  8
DEFAULT
 62
     7
 10
5186.621554044451
 20
57.7819005508133
 30
0.0000000000000013
 11
5186.59776795943
 21
57.8289349106937
 31
0.0000000000000012
  0
LINE
  5
24D
  8
DEFAULT
 62
     7
 10
5186.59776795943
 20
57.8289349106937
 30
0.0000000000000012
 11
5186.573594059984
 21
57.8743982388009
 31
0.0000000000000012
  0
LINE
  5
24E
  8
DEFAULT
 62
     7
 10
5186.573594059984
 20
57.8743982388009
 30
0.0000000000000012
 11
5186.553577616677
 21
57.91024504561804
 31
0.0000000000000012
  0
LINE
  5
24F
  8
DEFAULT
 62
     7
 10
5186.553577616677
 20
57.91024504561804
 30
0.0000000000000012
 11
5186.533444232635
 21
57.94473556976929
 31
0.0000000000000011
  0
LINE
  5
250
  8
DEFAULT
 62
     7
 10
5186.533444232635
 20
57.94473556976929
 30
0.0000000000000011
 11
5186.513347938562
 21
57.97765179693826
 31
0.0000000000000011
  0
LINE
  5
251
  8
DEFAULT
 62
     7
 10
5186.513347938562
 20
57.97765179693826
 30
0.0000000000000011
 11
5186.493442765163
 21
58.00877571280856
 31
0.0000000000000011
  0
LINE
  5
252
  8
DEFAULT
 62
     7
 10
5186.493442765163
 20
58.00877571280856
 30
0.0000000000000011
 11
5186.473882743145
 21
58.03788930306377
 31
0.000000000000001
  0
LINE
  5
253
  8
DEFAULT
 62
     7
 10
5186.473882743145
 20
58.03788930306377
 30
0.000000000000001
 11
5186.454821903213
 21
58.06477455338751
 31
0.000000000000001
  0
LINE
  5
254
  8
DEFAULT
 62
     7
 10
5186.454821903213
 20
58.06477455338751
 30
0.000000000000001
 11
5186.436414276071
 21
58.08921344946336
 31
0.000000000000001
  0
LINE
  5
255
  8
DEFAULT
 62
     7
 10
5186.436414276071
 20
58.08921344946336
 30
0.000000000000001
 11
5186.427503551892
 21
58.10044738518446
 31
0.000000000000001
  0
LINE
  5
256
  8
DEFAULT
 62
     7
 10
5186.427503551892
 20
58.10044738518446
 30
0.000000000000001
 11
5186.418813892426
 21
58.11098797697494
 31
0.000000000000001
  0
LINE
  5
257
  8
DEFAULT
 62
     7
 10
5186.418813892426
 20
58.11098797697494
 30
0.000000000000001
 11
5186.405572766081
 21
58.12620945350448
 31
0.000000000000001
  0
LINE
  5
258
  8
DEFAULT
 62
     7
 10
5186.405572766081
 20
58.12620945350448
 30
0.000000000000001
 11
5186.393295136328
 21
58.13941922284305
 31
0.0000000000000009
  0
LINE
  5
259
  8
DEFAULT
 62
     7
 10
5186.393295136328
 20
58.13941922284305
 30
0.0000000000000009
 11
5186.387629622866
 21
58.14520808306958
 31
0.0000000000000009
  0
LINE
  5
25A
  8
DEFAULT
 62
     7
 10
5186.387629622866
 20
58.14520808306958
 30
0.0000000000000009
 11
5186.382339371787
 21
58.15042005540298
 31
0.0000000000000009
  0
LINE
  5
25B
  8
DEFAULT
 62
     7
 10
5186.382339371787
 20
58.15042005540298
 30
0.0000000000000009
 11
5186.377469179163
 21
58.1550304861448
 31
0.0000000000000009
  0
LINE
  5
25C
  8
DEFAULT
 62
     7
 10
5186.377469179163
 20
58.1550304861448
 30
0.0000000000000009
 11
5186.373063841077
 21
58.15901472159656
 31
0.0000000000000009
  0
LINE
  5
25D
  8
DEFAULT
 62
     7
 10
5186.373063841077
 20
58.15901472159656
 30
0.0000000000000009
 11
5186.369171433435
 21
58.16235465656828
 31
0.0000000000000009
  0
LINE
  5
25E
  8
DEFAULT
 62
     7
 10
5186.369171433435
 20
58.16235465656828
 30
0.0000000000000009
 11
5186.365853151467
 21
58.16505837990373
 31
0.0000000000000009
  0
LINE
  5
25F
  8
DEFAULT
 62
     7
 10
5186.365853151467
 20
58.16505837990373
 30
0.0000000000000009
 11
5186.363173470239
 21
58.16714052895517
 31
0.0000000000000009
  0
LINE
  5
260
  8
DEFAULT
 62
     7
 10
5186.363173470239
 20
58.16714052895517
 30
0.0000000000000009
 11
5186.359813032108
 21
58.16962855025548
 31
0.0000000000000009
  0
LINE
  5
261
  8
DEFAULT
 62
     7
 10
5186.359813032108
 20
58.16962855025548
 30
0.0000000000000009
 11
5186.359691263006
 21
58.16972257171537
 31
0.0000000000000009
  0
LINE
  5
262
  8
DEFAULT
 62
     7
 10
5186.359691263006
 20
58.16972257171537
 30
0.0000000000000009
 11
5186.359650571665
 21
58.16975620072404
 31
0.0000000000000009
  0
LINE
  5
263
  8
DEFAULT
 62
     7
 10
5186.359650571665
 20
58.16975620072404
 30
0.0000000000000009
 11
5186.359635329391
 21
58.16976968230556
 31
0.0000000000000009
  0
LINE
  5
264
  8
DEFAULT
 62
     7
 10
5186.359635329391
 20
58.16976968230556
 30
0.0000000000000009
 11
5186.35962899099
 21
58.16977559142905
 31
0.0000000000000009
  0
LINE
  5
265
  8
DEFAULT
 62
     7
 10
5186.35962899099
 20
58.16977559142905
 30
0.0000000000000009
 11
5186.35962351037
 21
58.16978094670331
 31
0.0000000000000009
  0
LINE
  5
266
  8
DEFAULT
 62
     7
 10
5186.35962351037
 20
58.16978094670331
 30
0.0000000000000009
 11
5186.359618889497
 21
58.169785748575
 31
0.0000000000000009
  0
LINE
  5
267
  8
DEFAULT
 62
     7
 10
5186.359618889497
 20
58.169785748575
 30
0.0000000000000009
 11
5186.359615130341
 21
58.16978999749084
 31
0.0000000000000009
  0
LINE
  5
268
  8
DEFAULT
 62
     7
 10
5186.359615130341
 20
58.16978999749084
 30
0.0000000000000009
 11
5186.359612234868
 21
58.16979369389752
 31
0.0000000000000009
  0
LINE
  5
269
  8
DEFAULT
 62
     7
 10
5186.359612234868
 20
58.16979369389752
 30
0.0000000000000009
 11
5186.359610205047
 21
58.16979683824174
 31
0.0000000000000009
  0
LINE
  5
26A
  8
DEFAULT
 62
     7
 10
5186.359610205047
 20
58.16979683824174
 30
0.0000000000000009
 11
5186.359609042844
 21
58.16979943097019
 31
0.0000000000000009
  0
LINE
  5
26B
  8
DEFAULT
 62
     7
 10
5186.359609042844
 20
58.16979943097019
 30
0.0000000000000009
 11
5186.359608750227
 21
58.16980147252958
 31
0.0000000000000009
  0
LINE
  5
26C
  8
DEFAULT
 62
     7
 10
5186.359608750227
 20
58.16980147252958
 30
0.0000000000000009
 11
5186.359609329164
 21
58.16980296336659
 31
0.0000000000000009
  0
LINE
  5
26D
  8
DEFAULT
 62
     7
 10
5186.359609329164
 20
58.16980296336659
 30
0.0000000000000009
 11
5186.359610781624
 21
58.16980390392792
 31
0.0000000000000009
  0
LINE
  5
26E
  8
DEFAULT
 62
     7
 10
5186.359610781624
 20
58.16980390392792
 30
0.0000000000000009
 11
5186.359613109572
 21
58.16980429466028
 31
0.0000000000000009
  0
LINE
  5
26F
  8
DEFAULT
 62
     7
 10
5186.359613109572
 20
58.16980429466028
 30
0.0000000000000009
 11
5186.359616314977
 21
58.16980413601035
 31
0.0000000000000009
  0
LINE
  5
270
  8
DEFAULT
 62
     7
 10
5186.359616314977
 20
58.16980413601035
 30
0.0000000000000009
 11
5186.359620399807
 21
58.16980342842484
 31
0.0000000000000009
  0
LINE
  5
271
  8
DEFAULT
 62
     7
 10
5186.359620399807
 20
58.16980342842484
 30
0.0000000000000009
 11
5186.359625366029
 21
58.16980217235043
 31
0.0000000000000009
  0
LINE
  5
272
  8
DEFAULT
 62
     7
 10
5186.359625366029
 20
58.16980217235043
 30
0.0000000000000009
 11
5186.359631215611
 21
58.16980036823383
 31
0.0000000000000009
  0
LINE
  5
273
  8
DEFAULT
 62
     7
 10
5186.359631215611
 20
58.16980036823383
 30
0.0000000000000009
 11
5186.35963795052
 21
58.16979801652174
 31
0.0000000000000009
  0
LINE
  5
274
  8
DEFAULT
 62
     7
 10
5186.35963795052
 20
58.16979801652174
 30
0.0000000000000009
 11
5186.359645572724
 21
58.16979511766085
 31
0.0000000000000009
  0
LINE
  5
275
  8
DEFAULT
 62
     7
 10
5186.359645572724
 20
58.16979511766085
 30
0.0000000000000009
 11
5186.35965408419
 21
58.16979167209784
 31
0.0000000000000009
  0
LINE
  5
276
  8
DEFAULT
 62
     7
 10
5186.35965408419
 20
58.16979167209784
 30
0.0000000000000009
 11
5186.359673782781
 21
58.16978314265233
 31
0.0000000000000009
  0
LINE
  5
277
  8
DEFAULT
 62
     7
 10
5186.359673782781
 20
58.16978314265233
 30
0.0000000000000009
 11
5186.359697062035
 21
58.16977243175875
 31
0.0000000000000009
  0
LINE
  5
278
  8
DEFAULT
 62
     7
 10
5186.359697062035
 20
58.16977243175875
 30
0.0000000000000009
 11
5186.35975442549
 21
58.16974447992172
 31
0.0000000000000009
  0
LINE
  5
279
  8
DEFAULT
 62
     7
 10
5186.35975442549
 20
58.16974447992172
 30
0.0000000000000009
 11
5186.363584420475
 21
58.16768537888971
 31
0.0000000000000009
  0
LINE
  5
27A
  8
DEFAULT
 62
     7
 10
5186.363584420475
 20
58.16768537888971
 30
0.0000000000000009
 11
5186.366239908081
 21
58.16632742872237
 31
0.0000000000000009
  0
LINE
  5
27B
  8
DEFAULT
 62
     7
 10
5186.366239908081
 20
58.16632742872237
 30
0.0000000000000009
 11
5186.369566336351
 21
58.16472325440635
 31
0.0000000000000009
  0
LINE
  5
27C
  8
DEFAULT
 62
     7
 10
5186.369566336351
 20
58.16472325440635
 30
0.0000000000000009
 11
5186.373552876412
 21
58.16292999356914
 31
0.0000000000000009
  0
LINE
  5
27D
  8
DEFAULT
 62
     7
 10
5186.373552876412
 20
58.16292999356914
 30
0.0000000000000009
 11
5186.378188699394
 21
58.16100478383821
 31
0.0000000000000009
  0
LINE
  5
27E
  8
DEFAULT
 62
     7
 10
5186.378188699394
 20
58.16100478383821
 30
0.0000000000000009
 11
5186.383462976424
 21
58.15900476284105
 31
0.0000000000000009
  0
LINE
  5
27F
  8
DEFAULT
 62
     7
 10
5186.383462976424
 20
58.15900476284105
 30
0.0000000000000009
 11
5186.389364878633
 21
58.15698706820513
 31
0.0000000000000009
  0
LINE
  5
280
  8
DEFAULT
 62
     7
 10
5186.389364878633
 20
58.15698706820513
 30
0.0000000000000009
 11
5186.392547805157
 21
58.15598944878123
 31
0.0000000000000009
  0
LINE
  5
281
  8
DEFAULT
 62
     7
 10
5186.392547805157
 20
58.15598944878123
 30
0.0000000000000009
 11
5186.39588357715
 21
58.15500883755794
 31
0.0000000000000009
  0
LINE
  5
282
  8
DEFAULT
 62
     7
 10
5186.39588357715
 20
58.15500883755794
 30
0.0000000000000009
 11
5186.399369490978
 21
58.1540519461631
 31
0.0000000000000009
  0
LINE
  5
283
  8
DEFAULT
 62
     7
 10
5186.399369490978
 20
58.1540519461631
 30
0.0000000000000009
 11
5186.402997442918
 21
58.15312376392212
 31
0.0000000000000009
  0
LINE
  5
284
  8
DEFAULT
 62
     7
 10
5186.402997442918
 20
58.15312376392212
 30
0.0000000000000009
 11
5186.410641646146
 21
58.15137176190097
 31
0.0000000000000009
  0
LINE
  5
285
  8
DEFAULT
 62
     7
 10
5186.410641646146
 20
58.15137176190097
 30
0.0000000000000009
 11
5186.418740556861
 21
58.14978930149293
 31
0.0000000000000009
  0
LINE
  5
286
  8
DEFAULT
 62
     7
 10
5186.418740556861
 20
58.14978930149293
 30
0.0000000000000009
 11
5186.427218545088
 21
58.14841285269648
 31
0.0000000000000009
  0
LINE
  5
287
  8
DEFAULT
 62
     7
 10
5186.427218545088
 20
58.14841285269648
 30
0.0000000000000009
 11
5186.435999980851
 21
58.14727888551006
 31
0.0000000000000009
  0
LINE
  5
288
  8
DEFAULT
 62
     7
 10
5186.435999980851
 20
58.14727888551006
 30
0.0000000000000009
 11
5186.445009234176
 21
58.14642386993214
 31
0.0000000000000009
  0
LINE
  5
289
  8
DEFAULT
 62
     7
 10
5186.445009234176
 20
58.14642386993214
 30
0.0000000000000009
 11
5186.449575658056
 21
58.14611236587088
 31
0.0000000000000009
  0
LINE
  5
28A
  8
DEFAULT
 62
     7
 10
5186.449575658056
 20
58.14611236587088
 30
0.0000000000000009
 11
5186.454170675086
 21
58.14588427596117
 31
0.0000000000000009
  0
LINE
  5
28B
  8
DEFAULT
 62
     7
 10
5186.454170675086
 20
58.14588427596117
 30
0.0000000000000009
 11
5186.45878483152
 21
58.14574415895282
 31
0.0000000000000009
  0
LINE
  5
28C
  8
DEFAULT
 62
     7
 10
5186.45878483152
 20
58.14574415895282
 30
0.0000000000000009
 11
5186.46340867361
 21
58.14569657359561
 31
0.0000000000000009
  0
LINE
  5
28D
  8
DEFAULT
 62
     7
 10
5186.46340867361
 20
58.14569657359561
 30
0.0000000000000009
 11
5186.468032739409
 21
58.14574455930521
 31
0.0000000000000009
  0
LINE
  5
28E
  8
DEFAULT
 62
     7
 10
5186.468032739409
 20
58.14574455930521
 30
0.0000000000000009
 11
5186.472647534172
 21
58.1458850781606
 31
0.0000000000000009
  0
LINE
  5
28F
  8
DEFAULT
 62
     7
 10
5186.472647534172
 20
58.1458850781606
 30
0.0000000000000009
 11
5186.477243554956
 21
58.1461135729066
 31
0.0000000000000009
  0
LINE
  5
290
  8
DEFAULT
 62
     7
 10
5186.477243554956
 20
58.1461135729066
 30
0.0000000000000009
 11
5186.481811298812
 21
58.14642548628802
 31
0.0000000000000009
  0
LINE
  5
291
  8
DEFAULT
 62
     7
 10
5186.481811298812
 20
58.14642548628802
 30
0.0000000000000009
 11
5186.490823943968
 21
58.14728133993639
 31
0.0000000000000009
  0
LINE
  5
292
  8
DEFAULT
 62
     7
 10
5186.490823943968
 20
58.14728133993639
 30
0.0000000000000009
 11
5186.499609446082
 21
58.14841618106427
 31
0.0000000000000009
  0
LINE
  5
293
  8
DEFAULT
 62
     7
 10
5186.499609446082
 20
58.14841618106427
 30
0.0000000000000009
 11
5186.508091781593
 21
58.1497935516302
 31
0.0000000000000009
  0
LINE
  5
294
  8
DEFAULT
 62
     7
 10
5186.508091781593
 20
58.1497935516302
 30
0.0000000000000009
 11
5186.516194926941
 21
58.15137699359273
 31
0.0000000000000009
  0
LINE
  5
295
  8
DEFAULT
 62
     7
 10
5186.516194926941
 20
58.15137699359273
 30
0.0000000000000009
 11
5186.523842858567
 21
58.1531300489104
 31
0.0000000000000009
  0
LINE
  5
296
  8
DEFAULT
 62
     7
 10
5186.523842858567
 20
58.1531300489104
 30
0.0000000000000009
 11
5186.527472361871
 21
58.15405878843946
 31
0.0000000000000009
  0
LINE
  5
297
  8
DEFAULT
 62
     7
 10
5186.527472361871
 20
58.15405878843946
 30
0.0000000000000009
 11
5186.530959552911
 21
58.15501625954175
 31
0.0000000000000009
  0
LINE
  5
298
  8
DEFAULT
 62
     7
 10
5186.530959552911
 20
58.15501625954175
 30
0.0000000000000009
 11
5186.53429628966
 21
58.15599747125748
 31
0.0000000000000009
  0
LINE
  5
299
  8
DEFAULT
 62
     7
 10
5186.53429628966
 20
58.15599747125748
 30
0.0000000000000009
 11
5186.537479873784
 21
58.15699569780835
 31
0.0000000000000009
  0
LINE
  5
29A
  8
DEFAULT
 62
     7
 10
5186.537479873784
 20
58.15699569780835
 30
0.0000000000000009
 11
5186.543382234486
 21
58.15901455748379
 31
0.0000000000000009
  0
LINE
  5
29B
  8
DEFAULT
 62
     7
 10
5186.543382234486
 20
58.15901455748379
 30
0.0000000000000009
 11
5186.54865593569
 21
58.16101556270469
 31
0.0000000000000009
  0
LINE
  5
29C
  8
DEFAULT
 62
     7
 10
5186.54865593569
 20
58.16101556270469
 30
0.0000000000000009
 11
5186.553290278067
 21
58.16294143760766
 31
0.0000000000000009
  0
LINE
  5
29D
  8
DEFAULT
 62
     7
 10
5186.553290278067
 20
58.16294143760766
 30
0.0000000000000009
 11
5186.55727456229
 21
58.1647349063293
 31
0.0000000000000009
  0
LINE
  5
29E
  8
DEFAULT
 62
     7
 10
5186.55727456229
 20
58.1647349063293
 30
0.0000000000000009
 11
5186.56059808903
 21
58.16633869300623
 31
0.0000000000000009
  0
LINE
  5
29F
  8
DEFAULT
 62
     7
 10
5186.56059808903
 20
58.16633869300623
 30
0.0000000000000009
 11
5186.56669552245
 21
58.16955058149571
 31
0.0000000000000009
  0
LINE
  5
2A0
  8
DEFAULT
 62
     7
 10
5186.56669552245
 20
58.16955058149571
 30
0.0000000000000009
 11
5186.567068714993
 21
58.16974663992122
 31
0.0000000000000009
  0
LINE
  5
2A1
  8
DEFAULT
 62
     7
 10
5186.567068714993
 20
58.16974663992122
 30
0.0000000000000009
 11
5186.567125405648
 21
58.16977398048536
 31
0.0000000000000009
  0
LINE
  5
2A2
  8
DEFAULT
 62
     7
 10
5186.567125405648
 20
58.16977398048536
 30
0.0000000000000009
 11
5186.567148346455
 21
58.16978438051112
 31
0.0000000000000009
  0
LINE
  5
2A3
  8
DEFAULT
 62
     7
 10
5186.567148346455
 20
58.16978438051112
 30
0.0000000000000009
 11
5186.567167705242
 21
58.16979259572358
 31
0.0000000000000009
  0
LINE
  5
2A4
  8
DEFAULT
 62
     7
 10
5186.567167705242
 20
58.16979259572358
 30
0.0000000000000009
 11
5186.5671760463
 21
58.16979588293675
 31
0.0000000000000009
  0
LINE
  5
2A5
  8
DEFAULT
 62
     7
 10
5186.5671760463
 20
58.16979588293675
 30
0.0000000000000009
 11
5186.567183497757
 21
58.16979862264093
 31
0.0000000000000009
  0
LINE
  5
2A6
  8
DEFAULT
 62
     7
 10
5186.567183497757
 20
58.16979862264093
 30
0.0000000000000009
 11
5186.567190061582
 21
58.16980081440087
 31
0.0000000000000009
  0
LINE
  5
2A7
  8
DEFAULT
 62
     7
 10
5186.567190061582
 20
58.16980081440087
 30
0.0000000000000009
 11
5186.567195739743
 21
58.16980245778136
 31
0.0000000000000009
  0
LINE
  5
2A8
  8
DEFAULT
 62
     7
 10
5186.567195739743
 20
58.16980245778136
 30
0.0000000000000009
 11
5186.567200534208
 21
58.16980355234716
 31
0.0000000000000009
  0
LINE
  5
2A9
  8
DEFAULT
 62
     7
 10
5186.567200534208
 20
58.16980355234716
 30
0.0000000000000009
 11
5186.567204446947
 21
58.16980409766305
 31
0.0000000000000009
  0
LINE
  5
2AA
  8
DEFAULT
 62
     7
 10
5186.567204446947
 20
58.16980409766305
 30
0.0000000000000009
 11
5186.567207479927
 21
58.16980409329381
 31
0.0000000000000009
  0
LINE
  5
2AB
  8
DEFAULT
 62
     7
 10
5186.567207479927
 20
58.16980409329381
 30
0.0000000000000009
 11
5186.567209635115
 21
58.1698035388042
 31
0.0000000000000009
  0
LINE
  5
2AC
  8
DEFAULT
 62
     7
 10
5186.567209635115
 20
58.1698035388042
 30
0.0000000000000009
 11
5186.567210914482
 21
58.169802433759
 31
0.0000000000000009
  0
LINE
  5
2AD
  8
DEFAULT
 62
     7
 10
5186.567210914482
 20
58.169802433759
 30
0.0000000000000009
 11
5186.567211319993
 21
58.16980077772298
 31
0.0000000000000009
  0
LINE
  5
2AE
  8
DEFAULT
 62
     7
 10
5186.567211319993
 20
58.16980077772298
 30
0.0000000000000009
 11
5186.567210853619
 21
58.16979857026091
 31
0.0000000000000009
  0
LINE
  5
2AF
  8
DEFAULT
 62
     7
 10
5186.567210853619
 20
58.16979857026091
 30
0.0000000000000009
 11
5186.567209517327
 21
58.16979581093757
 31
0.0000000000000009
  0
LINE
  5
2B0
  8
DEFAULT
 62
     7
 10
5186.567209517327
 20
58.16979581093757
 30
0.0000000000000009
 11
5186.567207313085
 21
58.16979249931774
 31
0.0000000000000009
  0
LINE
  5
2B1
  8
DEFAULT
 62
     7
 10
5186.567207313085
 20
58.16979249931774
 30
0.0000000000000009
 11
5186.567204242861
 21
58.16978863496617
 31
0.0000000000000009
  0
LINE
  5
2B2
  8
DEFAULT
 62
     7
 10
5186.567204242861
 20
58.16978863496617
 30
0.0000000000000009
 11
5186.567200308624
 21
58.16978421744766
 31
0.0000000000000009
  0
LINE
  5
2B3
  8
DEFAULT
 62
     7
 10
5186.567200308624
 20
58.16978421744766
 30
0.0000000000000009
 11
5186.567195512342
 21
58.16977924632697
 31
0.0000000000000009
  0
LINE
  5
2B4
  8
DEFAULT
 62
     7
 10
5186.567195512342
 20
58.16977924632697
 30
0.0000000000000009
 11
5186.567189855983
 21
58.16977372116887
 31
0.0000000000000009
  0
LINE
  5
2B5
  8
DEFAULT
 62
     7
 10
5186.567189855983
 20
58.16977372116887
 30
0.0000000000000009
 11
5186.567183341515
 21
58.16976764153814
 31
0.0000000000000009
  0
LINE
  5
2B6
  8
DEFAULT
 62
     7
 10
5186.567183341515
 20
58.16976764153814
 30
0.0000000000000009
 11
5186.567167746129
 21
58.16975381711788
 31
0.0000000000000009
  0
LINE
  5
2B7
  8
DEFAULT
 62
     7
 10
5186.567167746129
 20
58.16975381711788
 30
0.0000000000000009
 11
5186.567126344651
 21
58.1697194954558
 31
0.0000000000000009
  0
LINE
  5
2B8
  8
DEFAULT
 62
     7
 10
5186.567126344651
 20
58.1697194954558
 30
0.0000000000000009
 11
5186.567003139773
 21
58.16962406335459
 31
0.0000000000000009
  0
LINE
  5
2B9
  8
DEFAULT
 62
     7
 10
5186.567003139773
 20
58.16962406335459
 30
0.0000000000000009
 11
5186.563628897793
 21
58.16712275113435
 31
0.0000000000000009
  0
LINE
  5
2BA
  8
DEFAULT
 62
     7
 10
5186.563628897793
 20
58.16712275113435
 30
0.0000000000000009
 11
5186.560942609207
 21
58.16503506367721
 31
0.0000000000000009
  0
LINE
  5
2BB
  8
DEFAULT
 62
     7
 10
5186.560942609207
 20
58.16503506367721
 30
0.0000000000000009
 11
5186.557617457026
 21
58.16232656125208
 31
0.0000000000000009
  0
LINE
  5
2BC
  8
DEFAULT
 62
     7
 10
5186.557617457026
 20
58.16232656125208
 30
0.0000000000000009
 11
5186.55371793594
 21
58.15898298234834
 31
0.0000000000000009
  0
LINE
  5
2BD
  8
DEFAULT
 62
     7
 10
5186.55371793594
 20
58.15898298234834
 30
0.0000000000000009
 11
5186.549305341808
 21
58.15499652447168
 31
0.0000000000000009
  0
LINE
  5
2BE
  8
DEFAULT
 62
     7
 10
5186.549305341808
 20
58.15499652447168
 30
0.0000000000000009
 11
5186.544428175172
 21
58.15038522119314
 31
0.0000000000000009
  0
LINE
  5
2BF
  8
DEFAULT
 62
     7
 10
5186.544428175172
 20
58.15038522119314
 30
0.0000000000000009
 11
5186.539131737751
 21
58.14517356510004
 31
0.0000000000000009
  0
LINE
  5
2C0
  8
DEFAULT
 62
     7
 10
5186.539131737751
 20
58.14517356510004
 30
0.0000000000000009
 11
5186.533461331257
 21
58.13938604877971
 31
0.0000000000000009
  0
LINE
  5
2C1
  8
DEFAULT
 62
     7
 10
5186.533461331257
 20
58.13938604877971
 30
0.0000000000000009
 11
5186.521179817917
 21
58.12618140580677
 31
0.000000000000001
  0
LINE
  5
2C2
  8
DEFAULT
 62
     7
 10
5186.521179817917
 20
58.12618140580677
 30
0.000000000000001
 11
5186.507946048875
 21
58.11096723297305
 31
0.000000000000001
  0
LINE
  5
2C3
  8
DEFAULT
 62
     7
 10
5186.507946048875
 20
58.11096723297305
 30
0.000000000000001
 11
5186.499268296635
 21
58.1004318336798
 31
0.000000000000001
  0
LINE
  5
2C4
  8
DEFAULT
 62
     7
 10
5186.499268296635
 20
58.1004318336798
 30
0.000000000000001
 11
5186.490374612909
 21
58.08920343167478
 31
0.000000000000001
  0
LINE
  5
2C5
  8
DEFAULT
 62
     7
 10
5186.490374612909
 20
58.08920343167478
 30
0.000000000000001
 11
5186.472012716756
 21
58.06477658023231
 31
0.000000000000001
  0
LINE
  5
2C6
  8
DEFAULT
 62
     7
 10
5186.472012716756
 20
58.06477658023231
 30
0.000000000000001
 11
5186.45300689191
 21
58.03790460005152
 31
0.000000000000001
  0
LINE
  5
2C7
  8
DEFAULT
 62
     7
 10
5186.45300689191
 20
58.03790460005152
 30
0.000000000000001
 11
5186.433503669867
 21
58.00880541253831
 31
0.0000000000000011
  0
LINE
  5
2C8
  8
DEFAULT
 62
     7
 10
5186.433503669867
 20
58.00880541253831
 30
0.0000000000000011
 11
5186.41364958212
 21
57.97769693909859
 31
0.0000000000000011
  0
LINE
  5
2C9
  8
DEFAULT
 62
     7
 10
5186.41364958212
 20
57.97769693909859
 30
0.0000000000000011
 11
5186.393591160167
 21
57.94479710113825
 31
0.0000000000000011
  0
LINE
  5
2CA
  8
DEFAULT
 62
     7
 10
5186.393591160167
 20
57.94479710113825
 30
0.0000000000000011
 11
5186.373474935504
 21
57.9103238200632
 31
0.0000000000000012
  0
LINE
  5
2CB
  8
DEFAULT
 62
     7
 10
5186.373474935504
 20
57.9103238200632
 30
0.0000000000000012
 11
5186.353447439622
 21
57.87449501727933
 31
0.0000000000000012
  0
LINE
  5
2CC
  8
DEFAULT
 62
     7
 10
5186.353447439622
 20
57.87449501727933
 30
0.0000000000000012
 11
5186.329217058821
 21
57.82905326951258
 31
0.0000000000000012
  0
LINE
  5
2CD
  8
DEFAULT
 62
     7
 10
5186.329217058821
 20
57.82905326951258
 30
0.0000000000000012
 11
5186.305345870945
 21
57.78203313500445
 31
0.0000000000000013
  0
LINE
  5
2CE
  8
DEFAULT
 62
     7
 10
5186.305345870945
 20
57.78203313500445
 30
0.0000000000000013
 11
5186.258707047504
 21
57.68376606864755
 31
0.0000000000000014
  0
LINE
  5
2CF
  8
DEFAULT
 62
     7
 10
5186.258707047504
 20
57.68376606864755
 30
0.0000000000000014
 11
5186.213582916378
 21
57.5807105439756
 31
0.0000000000000015
  0
LINE
  5
2D0
  8
DEFAULT
 62
     7
 10
5186.213582916378
 20
57.5807105439756
 30
0.0000000000000015
 11
5186.170025424646
 21
57.47388328675559
 31
0.0000000000000015
  0
LINE
  5
2D1
  8
DEFAULT
 62
     7
 10
5186.170025424646
 20
57.47388328675559
 30
0.0000000000000015
 11
5186.120877871619
 21
57.34470693789645
 31
0.0000000000000016
  0
LINE
  5
2D2
  8
DEFAULT
 62
     7
 10
5186.120877871619
 20
57.34470693789645
 30
0.0000000000000016
 11
5186.073850575149
 21
57.21222203346179
 31
0.0000000000000017
  0
LINE
  5
2D3
  8
DEFAULT
 62
     7
 10
5186.073850575149
 20
57.21222203346179
 30
0.0000000000000017
 11
5186.028828533983
 21
57.07692466504002
 31
0.0000000000000018
  0
LINE
  5
2D4
  8
DEFAULT
 62
     7
 10
5186.028828533983
 20
57.07692466504002
 30
0.0000000000000018
 11
5185.985696746868
 21
56.93931092421955
 31
0.0000000000000019
  0
LINE
  5
2D5
  8
DEFAULT
 62
     7
 10
5185.985696746868
 20
56.93931092421955
 30
0.0000000000000019
 11
5185.894209458767
 21
56.62045539727489
 31
0.0000000000000021
  0
LINE
  5
2D6
  8
DEFAULT
 62
     7
 10
5185.894209458767
 20
56.62045539727489
 30
0.0000000000000021
 11
5185.810521175467
 21
56.29473906644748
 31
0.0000000000000023
  0
LINE
  5
2D7
  8
DEFAULT
 62
     7
 10
5185.810521175467
 20
56.29473906644748
 30
0.0000000000000023
 11
5185.722678847707
 21
55.91589691777034
 31
0.0000000000000025
  0
LINE
  5
2D8
  8
DEFAULT
 62
     7
 10
5185.722678847707
 20
55.91589691777034
 30
0.0000000000000025
 11
5185.642419011447
 21
55.53230852775771
 31
0.0000000000000026
  0
LINE
  5
2D9
  8
DEFAULT
 62
     7
 10
5185.642419011447
 20
55.53230852775771
 30
0.0000000000000026
 11
5185.501092620905
 21
54.75472184932802
 31
0.0000000000000028
  0
LINE
  5
2DA
  8
DEFAULT
 62
     7
 10
5185.501092620905
 20
54.75472184932802
 30
0.0000000000000028
 11
5185.367119893164
 21
53.87588579607952
 31
0.0000000000000029
  0
LINE
  5
2DB
  8
DEFAULT
 62
     7
 10
5185.367119893164
 20
53.87588579607952
 30
0.0000000000000029
 11
5185.253913232168
 21
52.99023813591532
 31
0.0000000000000027
  0
LINE
  5
2DC
  8
DEFAULT
 62
     7
 10
5185.253913232168
 20
52.99023813591532
 30
0.0000000000000027
 11
5185.153976262996
 21
52.05871649589364
 31
0.0000000000000023
  0
LINE
  5
2DD
  8
DEFAULT
 62
     7
 10
5185.153976262996
 20
52.05871649589364
 30
0.0000000000000023
 11
5184.997811440177
 21
50.10912813042329
 31
0.0000000000000005
  0
LINE
  5
2DE
  8
DEFAULT
 62
     7
 10
5184.997811440177
 20
50.10912813042329
 30
0.0000000000000005
 11
5184.942694788533
 21
49.09327054740683
 31
-0.0000000000000011
  0
LINE
  5
2DF
  8
DEFAULT
 62
     7
 10
5184.942694788533
 20
49.09327054740683
 30
-0.0000000000000011
 11
5184.904187378852
 21
48.01421671058115
 31
-0.0000000000000033
  0
LINE
  5
2E0
  8
DEFAULT
 62
     7
 10
5184.904187378852
 20
48.01421671058115
 30
-0.0000000000000033
 11
5184.887072602517
 21
46.93516961109667
 31
-0.0000000000000057
  0
LINE
  5
2E1
  8
DEFAULT
 62
     7
 10
5184.887072602517
 20
46.93516961109667
 30
-0.0000000000000057
 11
5184.891597481429
 21
45.88067474983363
 31
-0.0000000000000082
  0
LINE
  5
2E2
  8
DEFAULT
 62
     7
 10
5184.891597481429
 20
45.88067474983363
 30
-0.0000000000000082
 11
5184.916844658153
 21
44.82615637376354
 31
-0.0000000000000105
  0
LINE
  5
2E3
  8
DEFAULT
 62
     7
 10
5184.916844658153
 20
44.82615637376354
 30
-0.0000000000000105
 11
5184.96306238913
 21
43.754428076045
 31
-0.0000000000000126
  0
LINE
  5
2E4
  8
DEFAULT
 62
     7
 10
5184.96306238913
 20
43.754428076045
 30
-0.0000000000000126
 11
5185.02867742762
 21
42.68261095463146
 31
-0.0000000000000141
  0
LINE
  5
2E5
  8
DEFAULT
 62
     7
 10
5185.02867742762
 20
42.68261095463146
 30
-0.0000000000000141
 11
5185.223661828566
 21
40.41413820464999
 31
-0.0000000000000148
  0
LINE
  5
2E6
  8
DEFAULT
 62
     7
 10
5185.223661828566
 20
40.41413820464999
 30
-0.0000000000000148
 11
5185.478438043692
 21
38.14486273711524
 31
-0.0000000000000113
  0
LINE
  5
2E7
  8
DEFAULT
 62
     7
 10
5185.478438043692
 20
38.14486273711524
 30
-0.0000000000000113
 11
5186.63430108799
 21
29.5640107450955
 31
0.0000000000000314
  0
LINE
  5
2E8
  8
DEFAULT
 62
     7
 10
5186.63430108799
 20
29.5640107450955
 30
0.0000000000000314
 11
5186.869230288865
 21
27.47294552203067
 31
0.0000000000000356
  0
LINE
  5
2E9
  8
DEFAULT
 62
     7
 10
5186.869230288865
 20
27.47294552203067
 30
0.0000000000000356
 11
5187.054584048361
 21
25.37175618193219
 31
0.0000000000000317
  0
LINE
  5
2EA
  8
DEFAULT
 62
     7
 10
5187.054584048361
 20
25.37175618193219
 30
0.0000000000000317
 11
5187.163981702759
 21
23.54858140012773
 31
0.0000000000000198
  0
LINE
  5
2EB
  8
DEFAULT
 62
     7
 10
5187.163981702759
 20
23.54858140012773
 30
0.0000000000000198
 11
5187.216466950542
 21
21.72106225840158
 31
-0.0000000000000016
  0
LINE
  5
2EC
  8
DEFAULT
 62
     7
 10
5187.216466950542
 20
21.72106225840158
 30
-0.0000000000000016
 11
5187.213408673611
 21
-0.3543034264043463
 31
-0.0000000000000352
  0
LINE
  5
2ED
  8
DEFAULT
 62
     7
 10
5187.213408673611
 20
-0.3543034264043463
 30
-0.0000000000000352
 11
5185.713408673611
 21
-0.3543034264043463
 31
-0.0000000000000352
  0
TEXT
  5
2EF
  8
DEFAULT
  6
CONTINUOUS
 62
     7
 10
5409.099654354629
 20
-523.0106007069847
 30
0.0
 40
5.0
  1
60
  7
TIMES_NEW_ROMAN_REGULAR
  0
LINE
  5
2F0
  8
DEFAULT
 62
     2
 10
5387.354362510262
 20
-497.1778550430049
 30
0.0
 11
5387.354362510262
 21
-547.1778550430049
 31
0.0
  0
LINE
  5
2F1
  8
DEFAULT
 62
     2
 10
5387.354362510262
 20
-547.1778550430049
 30
0.0
 11
5447.354362510262
 21
-547.1778550430049
 31
0.0
  0
LINE
  5
2F2
  8
DEFAULT
 62
     2
 10
5447.354362510262
 20
-547.1778550430049
 30
0.0
 11
5447.354362510262
 21
-497.1778550430042
 31
0.0
  0
LINE
  5
2F3
  8
DEFAULT
 62
     2
 10
5447.354362510262
 20
-497.1778550430042
 30
0.0
 11
5387.354362510262
 21
-497.1778550430049
 31
0.0
  0
LINE
  5
2F4
  8
DEFAULT
 62
     1
 10
5184.979514100119
 20
18.80356352177873
 30
0.0
 11
5188.044986649152
 21
18.34742383253627
 31
0.0
  0
LINE
  5
2F5
  8
DEFAULT
 62
     1
 10
5188.044986649152
 20
18.34742383253627
 30
0.0
 11
5184.979514100119
 21
17.89128414329382
 31
0.0
  0
LINE
  5
2F6
  8
DEFAULT
 62
     1
 10
5184.979514100119
 20
17.89128414329382
 30
0.0
 11
5188.044986649152
 21
17.43514445405137
 31
0.0
  0
LINE
  5
2F7
  8
DEFAULT
 62
     1
 10
5188.044986649152
 20
17.43514445405137
 30
0.0
 11
5184.979514100119
 21
16.97900476480892
 31
0.0
  0
LINE
  5
2F8
  8
DEFAULT
 62
     1
 10
5184.979514100119
 20
16.97900476480892
 30
0.0
 11
5188.044986649152
 21
16.52286507556646
 31
0.0
  0
LINE
  5
2F9
  8
DEFAULT
 62
     1
 10
5188.044986649152
 20
16.52286507556646
 30
0.0
 11
5184.979514100119
 21
16.06672538632401
 31
0.0
  0
LINE
  5
2FA
  8
DEFAULT
 62
     1
 10
5184.979514100119
 20
16.06672538632401
 30
0.0
 11
5188.044986649152
 21
15.61058569708156
 31
0.0
  0
LINE
  5
2FB
  8
DEFAULT
 62
     1
 10
5188.044986649152
 20
15.61058569708156
 30
0.0
 11
5184.979514100119
 21
15.1544460078391
 31
0.0
  0
LINE
  5
2FC
  8
DEFAULT
 62
     1
 10
5184.979514100119
 20
15.1544460078391
 30
0.0
 11
5188.044986649152
 21
14.69830631859665
 31
0.0
  0
LINE
  5
2FD
  8
DEFAULT
 62
     1
 10
5188.044986649152
 20
14.69830631859665
 30
0.0
 11
5184.979514100119
 21
14.2421666293542
 31
0.0
  0
LINE
  5
2FE
  8
DEFAULT
 62
     1
 10
5184.979514100119
 20
14.2421666293542
 30
0.0
 11
5188.044986649152
 21
13.78602694011174
 31
0.0
  0
LINE
  5
2FF
  8
DEFAULT
 62
     1
 10
5188.044986649152
 20
13.78602694011174
 30
0.0
 11
5184.979514100119
 21
13.32988725086929
 31
0.0
  0
LINE
  5
300
  8
DEFAULT
 62
     1
 10
5184.979514100119
 20
13.32988725086929
 30
0.0
 11
5188.044986649152
 21
12.87374756162684
 31
0.0
  0
LINE
  5
301
  8
DEFAULT
 62
     1
 10
5188.044986649152
 20
12.87374756162684
 30
0.0
 11
5184.979514100119
 21
12.41760787238439
 31
0.0
  0
LINE
  5
302
  8
DEFAULT
 62
     1
 10
5184.979514100119
 20
12.41760787238439
 30
0.0
 11
5188.044986649152
 21
11.96146818314193
 31
0.0
  0
LINE
  5
303
  8
DEFAULT
 62
     1
 10
5188.044986649152
 20
11.96146818314193
 30
0.0
 11
5184.979514100119
 21
11.50532849389948
 31
0.0
  0
LINE
  5
304
  8
DEFAULT
 62
     1
 10
5184.979514100119
 20
11.50532849389948
 30
0.0
 11
5188.044986649152
 21
11.04918880465703
 31
0.0
  0
LINE
  5
305
  8
DEFAULT
 62
     1
 10
5188.044986649152
 20
11.04918880465703
 30
0.0
 11
5184.979514100119
 21
10.59304911541457
 31
0.0
  0
LINE
  5
306
  8
DEFAULT
 62
     1
 10
5184.979514100119
 20
10.59304911541457
 30
0.0
 11
5188.044986649152
 21
10.13690942617212
 31
0.0
  0
LINE
  5
307
  8
DEFAULT
 62
     1
 10
5188.044986649152
 20
10.13690942617212
 30
0.0
 11
5184.979514100119
 21
9.680769736929669
 31
0.0
  0
LINE
  5
308
  8
DEFAULT
 62
     1
 10
5184.979514100119
 20
9.680769736929669
 30
0.0
 11
5188.044986649152
 21
9.224630047687217
 31
0.0
  0
LINE
  5
309
  8
DEFAULT
 62
     1
 10
5188.044986649152
 20
9.224630047687217
 30
0.0
 11
5184.979514100119
 21
8.768490358444764
 31
0.0
  0
LINE
  5
30A
  8
DEFAULT
 62
     1
 10
5184.979514100119
 20
8.768490358444764
 30
0.0
 11
5188.044986649152
 21
8.31235066920231
 31
0.0
  0
LINE
  5
30B
  8
DEFAULT
 62
     1
 10
5188.044986649152
 20
8.31235066920231
 30
0.0
 11
5184.979514100119
 21
7.856210979959858
 31
0.0
  0
LINE
  5
30C
  8
DEFAULT
 62
     1
 10
5184.979514100119
 20
7.856210979959858
 30
0.0
 11
5188.044986649152
 21
7.400071290717405
 31
0.0
  0
LINE
  5
30D
  8
DEFAULT
 62
     1
 10
5188.044986649152
 20
7.400071290717405
 30
0.0
 11
5184.979514100119
 21
6.943931601474953
 31
0.0
  0
LINE
  5
30E
  8
DEFAULT
 62
     1
 10
5184.979514100119
 20
6.943931601474953
 30
0.0
 11
5188.044986649152
 21
6.4877919122325
 31
0.0
  0
LINE
  5
30F
  8
DEFAULT
 62
     1
 10
5188.044986649152
 20
6.4877919122325
 30
0.0
 11
5184.979514100119
 21
6.031652222990046
 31
0.0
  0
LINE
  5
310
  8
DEFAULT
 62
     1
 10
5184.979514100119
 20
6.031652222990046
 30
0.0
 11
5188.044986649152
 21
5.575512533747593
 31
0.0
  0
LINE
  5
311
  8
DEFAULT
 62
     1
 10
5188.044986649152
 20
5.575512533747593
 30
0.0
 11
5184.979514100119
 21
5.119372844505141
 31
0.0
  0
LINE
  5
312
  8
DEFAULT
 62
     1
 10
5184.979514100119
 20
5.119372844505141
 30
0.0
 11
5188.044986649152
 21
4.663233155262688
 31
0.0
  0
LINE
  5
313
  8
DEFAULT
 62
     1
 10
5188.044986649152
 20
4.663233155262688
 30
0.0
 11
5184.979514100119
 21
4.207093466020235
 31
0.0
  0
LINE
  5
314
  8
DEFAULT
 62
     1
 10
5184.979514100119
 20
4.207093466020235
 30
0.0
 11
5188.044986649152
 21
3.750953776777783
 31
0.0
  0
LINE
  5
315
  8
DEFAULT
 62
     1
 10
5188.044986649152
 20
3.750953776777783
 30
0.0
 11
5184.979514100119
 21
3.29481408753533
 31
0.0
  0
LINE
  5
316
  8
DEFAULT
 62
     1
 10
5184.979514100119
 20
3.29481408753533
 30
0.0
 11
5188.044986649152
 21
2.838674398292876
 31
0.0
  0
LINE
  5
317
  8
DEFAULT
 62
     1
 10
5188.044986649152
 20
2.838674398292876
 30
0.0
 11
5184.979514100119
 21
2.382534709050423
 31
0.0
  0
LINE
  5
318
  8
DEFAULT
 62
     1
 10
5184.979514100119
 20
2.382534709050423
 30
0.0
 11
5188.044986649152
 21
1.926395019807972
 31
0.0
  0
LINE
  5
319
  8
DEFAULT
 62
     1
 10
5188.044986649152
 20
1.926395019807972
 30
0.0
 11
5184.979514100119
 21
1.470255330565518
 31
0.0
  0
LINE
  5
31A
  8
DEFAULT
 62
     1
 10
5184.979514100119
 20
1.470255330565518
 30
0.0
 11
5188.044986649152
 21
1.014115641323064
 31
0.0
  0
LINE
  5
31B
  8
DEFAULT
 62
     1
 10
5188.044986649152
 20
1.014115641323064
 30
0.0
 11
5184.979514100119
 21
0.5579759520806125
 31
0.0
  0
LINE
  5
31C
  8
DEFAULT
 62
     1
 10
5184.979514100119
 20
0.5579759520806125
 30
0.0
 11
5188.044986649152
 21
0.1018362628381588
 31
0.0
  0
LINE
  5
31D
  8
DEFAULT
 62
     1
 10
5188.044986649152
 20
0.1018362628381588
 30
0.0
 11
5184.979514100119
 21
-0.354303426404293
 31
0.0
  0
LINE
  5
31E
  8
DEFAULT
 62
     1
 10
5177.299205044847
 20
18.80356352177873
 30
0.0
 11
5182.160341412322
 21
18.34742383253627
 31
0.0
  0
LINE
  5
31F
  8
DEFAULT
 62
     1
 10
5182.160341412322
 20
18.34742383253627
 30
0.0
 11
5177.299205044847
 21
17.89128414329382
 31
0.0
  0
LINE
  5
320
  8
DEFAULT
 62
     1
 10
5177.299205044847
 20
17.89128414329382
 30
0.0
 11
5182.160341412322
 21
17.43514445405137
 31
0.0
  0
LINE
  5
321
  8
DEFAULT
 62
     1
 10
5182.160341412322
 20
17.43514445405137
 30
0.0
 11
5177.299205044847
 21
16.97900476480892
 31
0.0
  0
LINE
  5
322
  8
DEFAULT
 62
     1
 10
5177.299205044847
 20
16.97900476480892
 30
0.0
 11
5182.160341412322
 21
16.52286507556646
 31
0.0
  0
LINE
  5
323
  8
DEFAULT
 62
     1
 10
5182.160341412322
 20
16.52286507556646
 30
0.0
 11
5177.299205044847
 21
16.06672538632401
 31
0.0
  0
LINE
  5
324
  8
DEFAULT
 62
     1
 10
5177.299205044847
 20
16.06672538632401
 30
0.0
 11
5182.160341412322
 21
15.61058569708156
 31
0.0
  0
LINE
  5
325
  8
DEFAULT
 62
     1
 10
5182.160341412322
 20
15.61058569708156
 30
0.0
 11
5177.299205044847
 21
15.1544460078391
 31
0.0
  0
LINE
  5
326
  8
DEFAULT
 62
     1
 10
5177.299205044847
 20
15.1544460078391
 30
0.0
 11
5182.160341412322
 21
14.69830631859665
 31
0.0
  0
LINE
  5
327
  8
DEFAULT
 62
     1
 10
5182.160341412322
 20
14.69830631859665
 30
0.0
 11
5177.299205044847
 21
14.2421666293542
 31
0.0
  0
LINE
  5
328
  8
DEFAULT
 62
     1
 10
5177.299205044847
 20
14.2421666293542
 30
0.0
 11
5182.160341412322
 21
13.78602694011174
 31
0.0
  0
LINE
  5
329
  8
DEFAULT
 62
     1
 10
5182.160341412322
 20
13.78602694011174
 30
0.0
 11
5177.299205044847
 21
13.32988725086929
 31
0.0
  0
LINE
  5
32A
  8
DEFAULT
 62
     1
 10
5177.299205044847
 20
13.32988725086929
 30
0.0
 11
5182.160341412322
 21
12.87374756162684
 31
0.0
  0
LINE
  5
32B
  8
DEFAULT
 62
     1
 10
5182.160341412322
 20
12.87374756162684
 30
0.0
 11
5177.299205044847
 21
12.41760787238439
 31
0.0
  0
LINE
  5
32C
  8
DEFAULT
 62
     1
 10
5177.299205044847
 20
12.41760787238439
 30
0.0
 11
5182.160341412322
 21
11.96146818314193
 31
0.0
  0
LINE
  5
32D
  8
DEFAULT
 62
     1
 10
5182.160341412322
 20
11.96146818314193
 30
0.0
 11
5177.299205044847
 21
11.50532849389948
 31
0.0
  0
LINE
  5
32E
  8
DEFAULT
 62
     1
 10
5177.299205044847
 20
11.50532849389948
 30
0.0
 11
5182.160341412322
 21
11.04918880465703
 31
0.0
  0
LINE
  5
32F
  8
DEFAULT
 62
     1
 10
5182.160341412322
 20
11.04918880465703
 30
0.0
 11
5177.299205044847
 21
10.59304911541457
 31
0.0
  0
LINE
  5
330
  8
DEFAULT
 62
     1
 10
5177.299205044847
 20
10.59304911541457
 30
0.0
 11
5182.160341412322
 21
10.13690942617212
 31
0.0
  0
LINE
  5
331
  8
DEFAULT
 62
     1
 10
5182.160341412322
 20
10.13690942617212
 30
0.0
 11
5177.299205044847
 21
9.680769736929669
 31
0.0
  0
LINE
  5
332
  8
DEFAULT
 62
     1
 10
5177.299205044847
 20
9.680769736929669
 30
0.0
 11
5182.160341412322
 21
9.224630047687217
 31
0.0
  0
LINE
  5
333
  8
DEFAULT
 62
     1
 10
5182.160341412322
 20
9.224630047687217
 30
0.0
 11
5177.299205044847
 21
8.768490358444764
 31
0.0
  0
LINE
  5
334
  8
DEFAULT
 62
     1
 10
5177.299205044847
 20
8.768490358444764
 30
0.0
 11
5182.160341412322
 21
8.31235066920231
 31
0.0
  0
LINE
  5
335
  8
DEFAULT
 62
     1
 10
5182.160341412322
 20
8.31235066920231
 30
0.0
 11
5177.299205044847
 21
7.856210979959858
 31
0.0
  0
LINE
  5
336
  8
DEFAULT
 62
     1
 10
5177.299205044847
 20
7.856210979959858
 30
0.0
 11
5182.160341412322
 21
7.400071290717405
 31
0.0
  0
LINE
  5
337
  8
DEFAULT
 62
     1
 10
5182.160341412322
 20
7.400071290717405
 30
0.0
 11
5177.299205044847
 21
6.943931601474953
 31
0.0
  0
LINE
  5
338
  8
DEFAULT
 62
     1
 10
5177.299205044847
 20
6.943931601474953
 30
0.0
 11
5182.160341412322
 21
6.4877919122325
 31
0.0
  0
LINE
  5
339
  8
DEFAULT
 62
     1
 10
5182.160341412322
 20
6.4877919122325
 30
0.0
 11
5177.299205044847
 21
6.031652222990046
 31
0.0
  0
LINE
  5
33A
  8
DEFAULT
 62
     1
 10
5177.299205044847
 20
6.031652222990046
 30
0.0
 11
5182.160341412322
 21
5.575512533747593
 31
0.0
  0
LINE
  5
33B
  8
DEFAULT
 62
     1
 10
5182.160341412322
 20
5.575512533747593
 30
0.0
 11
5177.299205044847
 21
5.119372844505141
 31
0.0
  0
LINE
  5
33C
  8
DEFAULT
 62
     1
 10
5177.299205044847
 20
5.119372844505141
 30
0.0
 11
5182.160341412322
 21
4.663233155262688
 31
0.0
  0
LINE
  5
33D
  8
DEFAULT
 62
     1
 10
5182.160341412322
 20
4.663233155262688
 30
0.0
 11
5177.299205044847
 21
4.207093466020235
 31
0.0
  0
LINE
  5
33E
  8
DEFAULT
 62
     1
 10
5177.299205044847
 20
4.207093466020235
 30
0.0
 11
5182.160341412322
 21
3.750953776777783
 31
0.0
  0
LINE
  5
33F
  8
DEFAULT
 62
     1
 10
5182.160341412322
 20
3.750953776777783
 30
0.0
 11
5177.299205044847
 21
3.29481408753533
 31
0.0
  0
LINE
  5
340
  8
DEFAULT
 62
     1
 10
5177.299205044847
 20
3.29481408753533
 30
0.0
 11
5182.160341412322
 21
2.838674398292876
 31
0.0
  0
LINE
  5
341
  8
DEFAULT
 62
     1
 10
5182.160341412322
 20
2.838674398292876
 30
0.0
 11
5177.299205044847
 21
2.382534709050423
 31
0.0
  0
LINE
  5
342
  8
DEFAULT
 62
     1
 10
5177.299205044847
 20
2.382534709050423
 30
0.0
 11
5182.160341412322
 21
1.926395019807972
 31
0.0
  0
LINE
  5
343
  8
DEFAULT
 62
     1
 10
5182.160341412322
 20
1.926395019807972
 30
0.0
 11
5177.299205044847
 21
1.470255330565518
 31
0.0
  0
LINE
  5
344
  8
DEFAULT
 62
     1
 10
5177.299205044847
 20
1.470255330565518
 30
0.0
 11
5182.160341412322
 21
1.014115641323064
 31
0.0
  0
LINE
  5
345
  8
DEFAULT
 62
     1
 10
5182.160341412322
 20
1.014115641323064
 30
0.0
 11
5177.299205044847
 21
0.5579759520806125
 31
0.0
  0
LINE
  5
346
  8
DEFAULT
 62
     1
 10
5177.299205044847
 20
0.5579759520806125
 30
0.0
 11
5182.160341412322
 21
0.1018362628381588
 31
0.0
  0
LINE
  5
347
  8
DEFAULT
 62
     1
 10
5182.160341412322
 20
0.1018362628381588
 30
0.0
 11
5177.299205044847
 21
-0.354303426404293
 31
0.0
  0
TEXT
  5
349
  8
DEFAULT
  6
CONTINUOUS
 10
5433.886776637574
 20
-311.4105355355192
 30
0.0
 40
3.0
  1
T-handle
  7
ARIAL_REGULAR
  0
LINE
  5
34A
  8
DEFAULT
 62
     2
 10
5287.202314989557
 20
-12.05178983166274
 30
0.000000000000004
 11
5287.145770337484
 21
-11.91200674234702
 31
0.000000000000004
  0
LINE
  5
34B
  8
DEFAULT
 62
     2
 10
5287.145770337484
 20
-11.91200674234702
 30
0.000000000000004
 11
5287.081237335686
 21
-11.76286202414931
 31
0.000000000000004
  0
LINE
  5
34C
  8
DEFAULT
 62
     2
 10
5287.081237335686
 20
-11.76286202414931
 30
0.000000000000004
 11
5286.929366234849
 21
-11.43814467754791
 31
0.000000000000004
  0
LINE
  5
34D
  8
DEFAULT
 62
     2
 10
5286.929366234849
 20
-11.43814467754791
 30
0.000000000000004
 11
5286.749021590913
 21
-11.08095174473853
 31
0.000000000000004
  0
LINE
  5
34E
  8
DEFAULT
 62
     2
 10
5286.749021590913
 20
-11.08095174473853
 30
0.000000000000004
 11
5286.542523307739
 21
-10.69459717860113
 31
0.000000000000004
  0
LINE
  5
34F
  8
DEFAULT
 62
     2
 10
5286.542523307739
 20
-10.69459717860113
 30
0.000000000000004
 11
5286.060345439136
 21
-9.847658957862183
 31
0.000000000000004
  0
LINE
  5
350
  8
DEFAULT
 62
     2
 10
5286.060345439136
 20
-9.847658957862183
 30
0.000000000000004
 11
5285.501391859946
 21
-8.923841638370831
 31
0.000000000000004
  0
LINE
  5
351
  8
DEFAULT
 62
     2
 10
5285.501391859946
 20
-8.923841638370831
 30
0.000000000000004
 11
5284.884221801076
 21
-7.949656843166847
 31
0.000000000000004
  0
LINE
  5
352
  8
DEFAULT
 62
     2
 10
5284.884221801076
 20
-7.949656843166847
 30
0.000000000000004
 11
5284.227394493436
 21
-6.951616195289997
 31
0.000000000000004
  0
LINE
  5
353
  8
DEFAULT
 62
     2
 10
5284.227394493436
 20
-6.951616195289997
 30
0.000000000000004
 11
5282.86900505547
 21
-4.990013833676784
 31
0.000000000000004
  0
LINE
  5
354
  8
DEFAULT
 62
     2
 10
5282.86900505547
 20
-4.990013833676784
 30
0.000000000000004
 11
5282.253089766564
 21
-4.145622373541665
 31
0.000000000000004
  0
LINE
  5
355
  8
DEFAULT
 62
     2
 10
5282.253089766564
 20
-4.145622373541665
 30
0.000000000000004
 11
5281.626862969215
 21
-3.322042965330815
 31
0.000000000000004
  0
LINE
  5
356
  8
DEFAULT
 62
     2
 10
5281.626862969215
 20
-3.322042965330815
 30
0.000000000000004
 11
5280.966576560277
 21
-2.493388806693283
 31
0.000000000000004
  0
LINE
  5
357
  8
DEFAULT
 62
     2
 10
5280.966576560277
 20
-2.493388806693283
 30
0.000000000000004
 11
5280.248482436602
 21
-1.633773095278118
 31
0.000000000000004
  0
LINE
  5
358
  8
DEFAULT
 62
     2
 10
5280.248482436602
 20
-1.633773095278118
 30
0.000000000000004
 11
5279.44353164502
 21
-0.7116208122161427
 31
0.000000000000004
  0
LINE
  5
359
  8
DEFAULT
 62
     2
 10
5279.44353164502
 20
-0.7116208122161427
 30
0.000000000000004
 11
5278.570322531434
 21
0.249002283172176
 31
0.000000000000004
  0
LINE
  5
35A
  8
DEFAULT
 62
     2
 10
5278.570322531434
 20
0.249002283172176
 30
0.000000000000004
 11
5277.64448068709
 21
1.228095852852921
 31
0.000000000000004
  0
LINE
  5
35B
  8
DEFAULT
 62
     2
 10
5277.64448068709
 20
1.228095852852921
 30
0.000000000000004
 11
5276.681631703235
 21
2.205659558792176
 31
0.000000000000004
  0
LINE
  5
35C
  8
DEFAULT
 62
     2
 10
5276.681631703235
 20
2.205659558792176
 30
0.000000000000004
 11
5275.679326493628
 21
3.179767289698789
 31
0.000000000000004
  0
LINE
  5
35D
  8
DEFAULT
 62
     2
 10
5275.679326493628
 20
3.179767289698789
 30
0.000000000000004
 11
5274.655566337262
 21
4.131303394290682
 31
0.000000000000004
  0
LINE
  5
35E
  8
DEFAULT
 62
     2
 10
5274.655566337262
 20
4.131303394290682
 30
0.000000000000004
 11
5273.610950416486
 21
5.059903704939523
 31
0.000000000000004
  0
LINE
  5
35F
  8
DEFAULT
 62
     2
 10
5273.610950416486
 20
5.059903704939523
 30
0.000000000000004
 11
5272.546077913651
 21
5.965204054016979
 31
0.000000000000004
  0
LINE
  5
360
  8
DEFAULT
 62
     2
 10
5272.546077913651
 20
5.965204054016979
 30
0.000000000000004
 11
5271.442616141716
 21
6.861895489113547
 31
0.000000000000004
  0
LINE
  5
361
  8
DEFAULT
 62
     2
 10
5271.442616141716
 20
6.861895489113547
 30
0.000000000000004
 11
5270.319452286118
 21
7.73378451055832
 31
0.000000000000004
  0
LINE
  5
362
  8
DEFAULT
 62
     2
 10
5270.319452286118
 20
7.73378451055832
 30
0.000000000000004
 11
5269.177227759214
 21
8.580558775890147
 31
0.000000000000004
  0
LINE
  5
363
  8
DEFAULT
 62
     2
 10
5269.177227759214
 20
8.580558775890147
 30
0.000000000000004
 11
5268.01658397336
 21
9.401905942647875
 31
0.000000000000004
  0
LINE
  5
364
  8
DEFAULT
 62
     2
 10
5268.01658397336
 20
9.401905942647875
 30
0.000000000000004
 11
5266.815239263316
 21
10.212634416962
 31
0.000000000000004
  0
LINE
  5
365
  8
DEFAULT
 62
     2
 10
5266.815239263316
 20
10.212634416962
 30
0.000000000000004
 11
5265.596112129811
 21
10.99637229545394
 31
0.000000000000004
  0
LINE
  5
366
  8
DEFAULT
 62
     2
 10
5265.596112129811
 20
10.99637229545394
 30
0.000000000000004
 11
5264.359891162465
 21
11.75287201609742
 31
0.000000000000004
  0
LINE
  5
367
  8
DEFAULT
 62
     2
 10
5264.359891162465
 20
11.75287201609742
 30
0.000000000000004
 11
5263.107264950901
 21
12.48188601686615
 31
0.000000000000004
  0
LINE
  5
368
  8
DEFAULT
 62
     2
 10
5263.107264950901
 20
12.48188601686615
 30
0.000000000000004
 11
5261.811191574679
 21
13.19811165612394
 31
0.000000000000004
  0
LINE
  5
369
  8
DEFAULT
 62
     2
 10
5261.811191574679
 20
13.19811165612394
 30
0.000000000000004
 11
5260.499445189249
 21
13.88521631525491
 31
0.000000000000004
  0
LINE
  5
36A
  8
DEFAULT
 62
     2
 10
5260.499445189249
 20
13.88521631525491
 30
0.000000000000004
 11
5259.17275990813
 21
14.54303068174155
 31
0.000000000000004
  0
LINE
  5
36B
  8
DEFAULT
 62
     2
 10
5259.17275990813
 20
14.54303068174155
 30
0.000000000000004
 11
5257.831869844839
 21
15.17138544306635
 31
0.000000000000004
  0
LINE
  5
36C
  8
DEFAULT
 62
     2
 10
5257.831869844839
 20
15.17138544306635
 30
0.000000000000004
 11
5257.184836072255
 21
15.45735358156816
 31
0.000000000000004
  0
LINE
  5
36D
  8
DEFAULT
 62
     2
 10
5257.184836072255
 20
15.45735358156816
 30
0.000000000000004
 11
5256.13982870832
 21
15.8861590624809
 31
0.000000000000004
  0
LINE
  5
36E
  8
DEFAULT
 62
     2
 10
5256.13982870832
 20
15.8861590624809
 30
0.000000000000004
 11
5251.273973512813
 21
17.76557084657092
 31
0.000000000000004
  0
LINE
  5
36F
  8
DEFAULT
 62
     2
 10
5296.289569235427
 20
-7.872097172984006
 30
0.000000000000004
 11
5295.608843891252
 21
-6.546339703264396
 31
0.000000000000004
  0
LINE
  5
370
  8
DEFAULT
 62
     2
 10
5295.608843891252
 20
-6.546339703264396
 30
0.000000000000004
 11
5294.896114229852
 21
-5.2484664846492
 31
0.000000000000004
  0
LINE
  5
371
  8
DEFAULT
 62
     2
 10
5294.896114229852
 20
-5.2484664846492
 30
0.000000000000004
 11
5294.158499003152
 21
-3.982679799637679
 31
0.000000000000004
  0
LINE
  5
372
  8
DEFAULT
 62
     2
 10
5294.158499003152
 20
-3.982679799637679
 30
0.000000000000004
 11
5293.403116963076
 21
-2.753181930729097
 31
0.000000000000004
  0
LINE
  5
373
  8
DEFAULT
 62
     2
 10
5293.403116963076
 20
-2.753181930729097
 30
0.000000000000004
 11
5292.63708686155
 21
-1.564175160422716
 31
0.000000000000004
  0
LINE
  5
374
  8
DEFAULT
 62
     2
 10
5292.63708686155
 20
-1.564175160422716
 30
0.000000000000004
 11
5291.867527450499
 21
-0.4198617712177979
 31
0.000000000000004
  0
LINE
  5
375
  8
DEFAULT
 62
     2
 10
5291.867527450499
 20
-0.4198617712177979
 30
0.000000000000004
 11
5290.346295707521
 21
1.717875733890601
 31
0.000000000000004
  0
LINE
  5
376
  8
DEFAULT
 62
     2
 10
5290.346295707521
 20
1.717875733890601
 30
0.000000000000004
 11
5289.186529863932
 21
3.242439273628076
 31
0.000000000000004
  0
LINE
  5
377
  8
DEFAULT
 62
     2
 10
5289.186529863932
 20
3.242439273628076
 30
0.000000000000004
 11
5288.556793853061
 21
4.023898751133258
 31
0.000000000000004
  0
LINE
  5
378
  8
DEFAULT
 62
     2
 10
5288.556793853061
 20
4.023898751133258
 30
0.000000000000004
 11
5287.858858513725
 21
4.855292803764564
 31
0.000000000000004
  0
LINE
  5
379
  8
DEFAULT
 62
     2
 10
5287.858858513725
 20
4.855292803764564
 30
0.000000000000004
 11
5286.192399367896
 21
6.733300511622709
 31
0.000000000000004
  0
LINE
  5
37A
  8
DEFAULT
 62
     2
 10
5286.192399367896
 20
6.733300511622709
 30
0.000000000000004
 11
5285.262540619273
 21
7.730109111022031
 31
0.000000000000004
  0
LINE
  5
37B
  8
DEFAULT
 62
     2
 10
5285.262540619273
 20
7.730109111022031
 30
0.000000000000004
 11
5284.294048311909
 21
8.732576511502275
 31
0.000000000000004
  0
LINE
  5
37C
  8
DEFAULT
 62
     2
 10
5284.294048311909
 20
8.732576511502275
 30
0.000000000000004
 11
5283.291934660366
 21
9.731028800229437
 31
0.000000000000004
  0
LINE
  5
37D
  8
DEFAULT
 62
     2
 10
5283.291934660366
 20
9.731028800229437
 30
0.000000000000004
 11
5282.27054499571
 21
10.7097549200815
 31
0.000000000000004
  0
LINE
  5
37E
  8
DEFAULT
 62
     2
 10
5282.27054499571
 20
10.7097549200815
 30
0.000000000000004
 11
5281.23033091021
 21
11.66845501837399
 31
0.000000000000004
  0
LINE
  5
37F
  8
DEFAULT
 62
     2
 10
5281.23033091021
 20
11.66845501837399
 30
0.000000000000004
 11
5280.171743996132
 21
12.60682924242246
 31
0.000000000000004
  0
LINE
  5
380
  8
DEFAULT
 62
     2
 10
5280.171743996132
 20
12.60682924242246
 30
0.000000000000004
 11
5279.081678587242
 21
13.53591750675871
 31
0.000000000000004
  0
LINE
  5
381
  8
DEFAULT
 62
     2
 10
5279.081678587242
 20
13.53591750675871
 30
0.000000000000004
 11
5277.973719462456
 21
14.44359380707561
 31
0.000000000000004
  0
LINE
  5
382
  8
DEFAULT
 62
     2
 10
5277.973719462456
 20
14.44359380707561
 30
0.000000000000004
 11
5276.848344671389
 21
15.32959042476795
 31
0.000000000000004
  0
LINE
  5
383
  8
DEFAULT
 62
     2
 10
5276.848344671389
 20
15.32959042476795
 30
0.000000000000004
 11
5275.706032263659
 21
16.19363964123052
 31
0.000000000000004
  0
LINE
  5
384
  8
DEFAULT
 62
     2
 10
5275.706032263659
 20
16.19363964123052
 30
0.000000000000004
 11
5274.531118321347
 21
17.04697140496076
 31
0.000000000000004
  0
LINE
  5
385
  8
DEFAULT
 62
     2
 10
5274.531118321347
 20
17.04697140496076
 30
0.000000000000004
 11
5273.33979504707
 21
17.87724237804677
 31
0.000000000000004
  0
LINE
  5
386
  8
DEFAULT
 62
     2
 10
5273.33979504707
 20
17.87724237804677
 30
0.000000000000004
 11
5272.132571232427
 21
18.68422579344267
 31
0.000000000000004
  0
LINE
  5
387
  8
DEFAULT
 62
     2
 10
5272.132571232427
 20
18.68422579344267
 30
0.000000000000004
 11
5270.909955669016
 21
19.4676948841026
 31
0.000000000000004
  0
LINE
  5
388
  8
DEFAULT
 62
     2
 10
5270.909955669016
 20
19.4676948841026
 30
0.000000000000004
 11
5269.653447089582
 21
20.23884908257205
 31
0.000000000000004
  0
LINE
  5
389
  8
DEFAULT
 62
     2
 10
5269.653447089582
 20
20.23884908257205
 30
0.000000000000004
 11
5268.382135843071
 21
20.985350222406
 31
0.000000000000004
  0
LINE
  5
38A
  8
DEFAULT
 62
     2
 10
5268.382135843071
 20
20.985350222406
 30
0.000000000000004
 11
5267.096560257069
 21
21.70701699197034
 31
0.000000000000004
  0
LINE
  5
38B
  8
DEFAULT
 62
     2
 10
5267.096560257069
 20
21.70701699197034
 30
0.000000000000004
 11
5265.79725865917
 21
22.40366807963098
 31
0.000000000000004
  0
LINE
  5
38C
  8
DEFAULT
 62
     2
 10
5265.79725865917
 20
22.40366807963098
 30
0.000000000000004
 11
5264.462545220544
 21
23.08622993009405
 31
0.000000000000004
  0
LINE
  5
38D
  8
DEFAULT
 62
     2
 10
5264.462545220544
 20
23.08622993009405
 30
0.000000000000004
 11
5263.114763931532
 21
23.74261435968842
 31
0.000000000000004
  0
LINE
  5
38E
  8
DEFAULT
 62
     2
 10
5263.114763931532
 20
23.74261435968842
 30
0.000000000000004
 11
5261.754482778324
 21
24.37269720132604
 31
0.000000000000004
  0
LINE
  5
38F
  8
DEFAULT
 62
     2
 10
5261.754482778324
 20
24.37269720132604
 30
0.000000000000004
 11
5260.382269747107
 21
24.97635428791888
 31
0.000000000000004
  0
LINE
  5
390
  8
DEFAULT
 62
     2
 10
5260.382269747107
 20
24.97635428791888
 30
0.000000000000004
 11
5260.002392087641
 21
25.13477645162364
 31
0.000000000000004
  0
LINE
  5
391
  8
DEFAULT
 62
     2
 10
5260.002392087641
 20
25.13477645162364
 30
0.000000000000004
 11
5254.903913494672
 21
27.08505090905851
 31
0.000000000000004
  0
LINE
  5
392
  8
DEFAULT
 62
     2
 10
5287.202314989547
 20
-12.05178983163725
 30
-0.0000000000000595
 11
5296.289569235427
 21
-7.87209717298386
 31
-0.0000000000000595
  0
LINE
  5
393
  8
DEFAULT
 62
     2
 10
5251.273973512814
 20
17.76557084657035
 30
-0.0000000000001106
 11
5254.903913494684
 21
27.08505090905365
 31
-0.0000000000001106
  0
DIMENSION
  5
395
  8
DEFAULT
 62
     1
  2
*D1
 10
5250.256138521103
 20
15.62297703024992
 30
0.0
 11
5248.077146450171
 21
17.14145642890062
 31
0.0
 70
    32
  1
5
  3
DEFAULT
 13
5246.730817731214
 23
21.18101255341029
 33
-0.0000000000000352
 14
5251.564560275151
 24
19.5845199802384
 34
-0.0000000000000352
 50
-18.27739972927588
1001
ACAD
1000
DSTYLE
1002
{
1070
   287
1070
     3
1070
     5
1000

1070
   173
1070
     0
1070
   179
1070
     2
1070
    41
1040
1.0
1070
    79
1070
     1
1070
   141
1040
0.5
1070
   271
1070
     2
1070
    44
1040
0.5
1070
    42
1040
0.5
1070
   147
1040
0.25
1070
    77
1070
     1
1070
    73
1070
     0
1070
   174
1070
     0
1070
   279
1070
     0
1070
   340
1005
348
1070
   140
1040
1.0
1070
   284
1070
     1
1070
    78
1070
     1
1002
}
  0
POINT
  5
3A3
  8
DEFAULT
 10
5248.787962119392
 20
-101.3263513093847
 30
0.0
  0
POINT
  5
3A4
  8
DEFAULT
 10
5248.730817731214
 20
94.9741701625197
 30
0.000000000000004
  0
LINE
  5
3A5
  8
DEFAULT
 10
5297.311071107049
 20
-29.16507589611047
 30
0.000000000000004
 11
5297.498961374868
 21
-30.52017000488123
 31
0.000000000000004
  0
LINE
  5
3A6
  8
DEFAULT
 10
5297.498961374868
 20
-30.52017000488123
 30
0.000000000000004
 11
5297.653857667653
 21
-31.87942880347073
 31
0.000000000000004
  0
LINE
  5
3A7
  8
DEFAULT
 10
5297.653857667653
 20
-31.87942880347073
 30
0.000000000000004
 11
5297.775364831034
 21
-33.24205348988662
 31
0.000000000000004
  0
LINE
  5
3A8
  8
DEFAULT
 10
5297.775364831034
 20
-33.24205348988662
 30
0.000000000000004
 11
5297.863087710642
 21
-34.60724526213652
 31
0.000000000000004
  0
LINE
  5
3A9
  8
DEFAULT
 10
5297.863087710642
 20
-34.60724526213652
 30
0.000000000000004
 11
5297.927015561805
 21
-36.42873438226538
 31
0.000000000000004
  0
LINE
  5
3AA
  8
DEFAULT
 10
5297.927015561805
 20
-36.42873438226538
 30
0.000000000000004
 11
5297.930686328813
 21
-38.25137485372353
 31
0.000000000000004
  0
LINE
  5
3AB
  8
DEFAULT
 10
5297.930686328813
 20
-38.25137485372353
 30
0.000000000000004
 11
5297.886285239367
 21
-39.8126428790916
 31
0.000000000000004
  0
LINE
  5
3AC
  8
DEFAULT
 10
5297.886285239367
 20
-39.8126428790916
 30
0.000000000000004
 11
5297.798682276803
 21
-41.37207857411021
 31
0.000000000000004
  0
LINE
  5
3AD
  8
DEFAULT
 10
5297.798682276803
 20
-41.37207857411021
 30
0.000000000000004
 11
5297.668330170305
 21
-42.93147745770954
 31
0.000000000000004
  0
LINE
  5
3AE
  8
DEFAULT
 10
5297.668330170305
 20
-42.93147745770954
 30
0.000000000000004
 11
5297.496109390499
 21
-44.48680973236144
 31
0.000000000000004
  0
LINE
  5
3AF
  8
DEFAULT
 10
5297.496109390499
 20
-44.48680973236144
 30
0.000000000000004
 11
5297.282775740096
 21
-46.0370711052677
 31
0.000000000000004
  0
LINE
  5
3B0
  8
DEFAULT
 10
5297.282775740096
 20
-46.0370711052677
 30
0.000000000000004
 11
5297.029085021815
 21
-47.58125728363011
 31
0.000000000000004
  0
LINE
  5
3B1
  8
DEFAULT
 10
5297.029085021815
 20
-47.58125728363011
 30
0.000000000000004
 11
5296.734304440792
 21
-49.12572983690248
 31
0.000000000000004
  0
LINE
  5
3B2
  8
DEFAULT
 10
5296.734304440792
 20
-49.12572983690248
 30
0.000000000000004
 11
5296.400360495189
 21
-50.66222129651064
 31
0.000000000000004
  0
LINE
  5
3B3
  8
DEFAULT
 10
5296.400360495189
 20
-50.66222129651064
 30
0.000000000000004
 11
5296.028070903437
 21
-52.18989795587301
 31
0.000000000000004
  0
LINE
  5
3B4
  8
DEFAULT
 10
5296.028070903437
 20
-52.18989795587301
 30
0.000000000000004
 11
5295.618253383971
 21
-53.70792610840799
 31
0.000000000000004
  0
LINE
  5
3B5
  8
DEFAULT
 10
5295.618253383971
 20
-53.70792610840799
 30
0.000000000000004
 11
5295.010147968091
 21
-55.73033931444012
 31
0.000000000000004
  0
LINE
  5
3B6
  8
DEFAULT
 10
5295.010147968091
 20
-55.73033931444012
 30
0.000000000000004
 11
5294.337640516489
 21
-57.73228058055481
 31
0.000000000000004
  0
LINE
  5
3B7
  8
DEFAULT
 10
5294.337640516489
 20
-57.73228058055481
 30
0.000000000000004
 11
5293.602558880282
 21
-59.71218921308926
 31
0.000000000000004
  0
LINE
  5
3B8
  8
DEFAULT
 10
5293.602558880282
 20
-59.71218921308926
 30
0.000000000000004
 11
5292.806730910581
 21
-61.66850451838074
 31
0.000000000000004
  0
LINE
  5
3B9
  8
DEFAULT
 10
5292.806730910581
 20
-61.66850451838074
 30
0.000000000000004
 11
5292.166143405983
 21
-63.13025623394775
 31
0.000000000000004
  0
LINE
  5
3BA
  8
DEFAULT
 10
5292.166143405983
 20
-63.13025623394775
 30
0.000000000000004
 11
5291.492582990561
 21
-64.57708929066116
 31
0.000000000000004
  0
LINE
  5
3BB
  8
DEFAULT
 10
5291.492582990561
 20
-64.57708929066116
 30
0.000000000000004
 11
5290.786721618836
 21
-66.00844900531982
 31
0.000000000000004
  0
LINE
  5
3BC
  8
DEFAULT
 10
5290.786721618836
 20
-66.00844900531982
 30
0.000000000000004
 11
5290.049231245333
 21
-67.42378069472255
 31
0.000000000000004
  0
LINE
  5
3BD
  8
DEFAULT
 10
5290.049231245333
 20
-67.42378069472255
 30
0.000000000000004
 11
5289.276321376376
 21
-68.830432327886
 31
0.000000000000004
  0
LINE
  5
3BE
  8
DEFAULT
 10
5289.276321376376
 20
-68.830432327886
 30
0.000000000000004
 11
5288.472719563613
 21
-70.21978973697739
 31
0.000000000000004
  0
LINE
  5
3BF
  8
DEFAULT
 10
5288.472719563613
 20
-70.21978973697739
 30
0.000000000000004
 11
5287.639043547776
 21
-71.59133030298742
 31
0.000000000000004
  0
LINE
  5
3C0
  8
DEFAULT
 10
5287.639043547776
 20
-71.59133030298742
 30
0.000000000000004
 11
5286.77591106959
 21
-72.94453140690669
 31
0.000000000000004
  0
LINE
  5
3C1
  8
DEFAULT
 10
5286.77591106959
 20
-72.94453140690669
 30
0.000000000000004
 11
5285.879993749125
 21
-74.28461930901994
 31
0.000000000000004
  0
LINE
  5
3C2
  8
DEFAULT
 10
5285.879993749125
 20
-74.28461930901994
 30
0.000000000000004
 11
5284.955524321678
 21
-75.60516512926691
 31
0.000000000000004
  0
LINE
  5
3C3
  8
DEFAULT
 10
5284.955524321678
 20
-75.60516512926691
 30
0.000000000000004
 11
5284.003040154759
 21
-76.90565287279591
 31
0.000000000000004
  0
LINE
  5
3C4
  8
DEFAULT
 10
5284.003040154759
 20
-76.90565287279591
 30
0.000000000000004
 11
5283.023078615877
 21
-78.18556654475533
 31
0.000000000000004
  0
LINE
  5
3C5
  8
DEFAULT
 10
5283.023078615877
 20
-78.18556654475533
 30
0.000000000000004
 11
5282.013350971563
 21
-79.44782376179398
 31
0.000000000000004
  0
LINE
  5
3C6
  8
DEFAULT
 10
5282.013350971563
 20
-79.44782376179398
 30
0.000000000000004
 11
5280.976996801374
 21
-80.68830968959372
 31
0.000000000000004
  0
LINE
  5
3C7
  8
DEFAULT
 10
5280.976996801374
 20
-80.68830968959372
 30
0.000000000000004
 11
5279.914478339293
 21
-81.9064595589663
 31
0.000000000000004
  0
LINE
  5
3C8
  8
DEFAULT
 10
5279.914478339293
 20
-81.9064595589663
 30
0.000000000000004
 11
5278.8262578193
 21
-83.10170860072353
 31
0.000000000000004
  0
LINE
  5
3C9
  8
DEFAULT
 10
5278.8262578193
 20
-83.10170860072353
 30
0.000000000000004
 11
5277.71150153028
 21
-84.27481403185351
 31
0.000000000000004
  0
LINE
  5
3CA
  8
DEFAULT
 10
5277.71150153028
 20
-84.27481403185351
 30
0.000000000000004
 11
5276.571885723837
 21
-85.423781705848
 31
0.000000000000004
  0
LINE
  5
3CB
  8
DEFAULT
 10
5276.571885723837
 20
-85.423781705848
 30
0.000000000000004
 11
5275.407848650105
 21
-86.54799333287016
 31
0.000000000000004
  0
LINE
  5
3CC
  8
DEFAULT
 10
5275.407848650105
 20
-86.54799333287016
 30
0.000000000000004
 11
5274.219828559217
 21
-87.64683062308316
 31
0.000000000000004
  0
LINE
  5
3CD
  8
DEFAULT
 10
5274.219828559217
 20
-87.64683062308316
 30
0.000000000000004
 11
5273.008581177372
 21
-88.71939154028087
 31
0.000000000000004
  0
LINE
  5
3CE
  8
DEFAULT
 10
5273.008581177372
 20
-88.71939154028087
 30
0.000000000000004
 11
5271.774247861944
 21
-89.7652955567838
 31
0.000000000000004
  0
LINE
  5
3CF
  8
DEFAULT
 10
5271.774247861944
 20
-89.7652955567838
 30
0.000000000000004
 11
5270.517275282149
 21
-90.78386496964887
 31
0.000000000000004
  0
LINE
  5
3D0
  8
DEFAULT
 10
5270.517275282149
 20
-90.78386496964887
 30
0.000000000000004
 11
5269.2381101072
 21
-91.77442207593309
 31
0.000000000000004
  0
LINE
  5
3D1
  8
DEFAULT
 10
5269.2381101072
 20
-91.77442207593309
 30
0.000000000000004
 11
5267.938756874204
 21
-92.73515287455665
 31
0.000000000000004
  0
LINE
  5
3D2
  8
DEFAULT
 10
5267.938756874204
 20
-92.73515287455665
 30
0.000000000000004
 11
5266.618186411451
 21
-93.66649620330972
 31
0.000000000000004
  0
LINE
  5
3D3
  8
DEFAULT
 10
5266.618186411451
 20
-93.66649620330972
 30
0.000000000000004
 11
5265.276875966277
 21
-94.56768672394361
 31
0.000000000000004
  0
LINE
  5
3D4
  8
DEFAULT
 10
5265.276875966277
 20
-94.56768672394361
 30
0.000000000000004
 11
5263.915302786017
 21
-95.43795909820963
 31
0.000000000000004
  0
LINE
  5
3D5
  8
DEFAULT
 10
5263.915302786017
 20
-95.43795909820963
 30
0.000000000000004
 11
5262.537500306923
 21
-96.27466864807094
 31
0.000000000000004
  0
LINE
  5
3D6
  8
DEFAULT
 10
5262.537500306923
 20
-96.27466864807094
 30
0.000000000000004
 11
5261.149496802997
 21
-97.0750143895246
 31
0.000000000000004
  0
LINE
  5
3D7
  8
DEFAULT
 10
5261.149496802997
 20
-97.0750143895246
 30
0.000000000000004
 11
5259.760818531464
 21
-97.83422279112142
 31
0.000000000000004
  0
LINE
  5
3D8
  8
DEFAULT
 10
5259.760818531464
 20
-97.83422279112142
 30
0.000000000000004
 11
5258.380991749555
 21
-98.54752032141232
 31
0.000000000000004
  0
LINE
  5
3D9
  8
DEFAULT
 10
5258.380991749555
 20
-98.54752032141232
 30
0.000000000000004
 11
5257.018598263649
 21
-99.21099472535242
 31
0.000000000000004
  0
LINE
  5
3DA
  8
DEFAULT
 10
5257.018598263649
 20
-99.21099472535242
 30
0.000000000000004
 11
5255.670569438898
 21
-99.82797038185466
 31
0.000000000000004
  0
LINE
  5
3DB
  8
DEFAULT
 10
5255.670569438898
 20
-99.82797038185466
 30
0.000000000000004
 11
5254.332927634145
 21
-100.4025351929484
 31
0.000000000000004
  0
LINE
  5
3DC
  8
DEFAULT
 10
5254.332927634145
 20
-100.4025351929484
 30
0.000000000000004
 11
5253.00169520823
 21
-100.9387770606632
 31
0.000000000000004
  0
LINE
  5
3DD
  8
DEFAULT
 10
5253.00169520823
 20
-100.9387770606632
 30
0.000000000000004
 11
5251.217677461098
 21
-101.6023275113747
 31
0.000000000000004
  0
LINE
  5
3DE
  8
DEFAULT
 10
5251.217677461098
 20
-101.6023275113747
 30
0.000000000000004
 11
5249.273203589117
 21
-102.2517155520736
 31
0.000000000000004
  0
LINE
  5
3DF
  8
DEFAULT
 10
5249.273203589117
 20
-102.2517155520736
 30
0.000000000000004
 11
5247.003561325202
 21
-102.9326985604306
 31
0.000000000000004
  0
LINE
  5
3E0
  8
DEFAULT
 10
5247.003561325202
 20
-102.9326985604306
 30
0.000000000000004
 11
5244.24403840227
 21
-103.691033914116
 31
0.000000000000004
  0
LINE
  5
3E1
  8
DEFAULT
 10
5244.24403840227
 20
-103.691033914116
 30
0.000000000000004
 11
5243.987428066744
 21
-102.7245189707753
 31
0.000000000000004
  0
LINE
  5
3E2
  8
DEFAULT
 10
5243.987428066744
 20
-102.7245189707753
 30
0.000000000000004
 11
5248.787962119392
 21
-101.3263513093847
 31
0.0
  0
TEXT
  5
3E3
  8
DEFAULT
  6
CONTINUOUS
 62
     7
 10
5522.167670208317
 20
-306.7851154980409
 30
0.0
 40
5.0
  1
120
  7
TIMES_NEW_ROMAN_REGULAR
  0
TEXT
  5
3E4
  8
DEFAULT
  6
CONTINUOUS
 62
     7
 10
5433.648768022359
 20
-306.7851154980409
 30
0.0
 40
5.0
  1
65
  7
TIMES_NEW_ROMAN_REGULAR
  0
LINE
  5
3E5
  8
DEFAULT
 10
5467.552236150425
 20
-293.6805013349081
 30
0.0
 11
5467.552236150425
 21
-318.6805013349081
 31
0.0
  0
TEXT
  5
3E6
  8
DEFAULT
  6
CONTINUOUS
 10
5274.974908372646
 20
-308.1296051510041
 30
0.0
 40
3.0
  1
tip
  7
ARIAL_REGULAR
  0
TEXT
  5
3E7
  8
DEFAULT
  6
CONTINUOUS
 62
     7
 10
5335.942337468216
 20
-308.5281516467348
 30
0.0
 40
5.0
  1
125
  7
TIMES_NEW_ROMAN_REGULAR
  0
LINE
  5
3E8
  8
DEFAULT
 10
5402.552236150425
 20
-293.6805013349081
 30
0.0
 11
5402.552236150425
 21
-318.6805013349081
 31
0.0
  0
LINE
  5
3E9
  8
DEFAULT
 10
5277.552236150424
 20
-293.6805013349081
 30
0.0
 11
5277.552236150425
 21
-318.6805013349081
 31
0.0
  0
TEXT
  5
3EA
  8
DEFAULT
  6
CONTINUOUS
 62
     7
 10
5234.08053323419
 20
-308.7283077203001
 30
0.0
 40
5.0
  1
85
  7
TIMES_NEW_ROMAN_REGULAR
  0
TEXT
  5
3EB
  8
DEFAULT
  6
CONTINUOUS
 62
     7
 10
5155.351641442273
 20
-307.9276834260393
 30
0.0
 40
5.0
  1
65
  7
TIMES_NEW_ROMAN_REGULAR
  0
TEXT
  5
3EC
  8
DEFAULT
  6
CONTINUOUS
 10
5137.392528977081
 20
-310.6010522750535
 30
0.0
 40
3.0
  1
not sewn to anything else
  7
ARIAL_REGULAR
  0
LINE
  5
3EE
  8
0
  6
DASHDOT
 62
     7
 10
5587.552236150424
 20
-314.6805013349083
 30
0.0
 11
5142.552236150425
 21
-314.6805013349083
 31
0.0
  0
LINE
  5
3EF
  8
0
  6
DASHDOT
 62
     7
 10
5587.552236150424
 20
-297.6805013349081
 30
0.0
 11
5142.552236150425
 21
-297.6805013349081
 31
0.0
  0
LINE
  5
3F0
  8
DEFAULT
 10
5587.552236150424
 20
-293.6805013349081
 30
0.0
 11
5127.552236150424
 21
-293.6805013349081
 31
0.0
  0
LINE
  5
3F1
  8
DEFAULT
 10
5127.552236150424
 20
-318.6805013349081
 30
0.0
 11
5587.552236150424
 21
-318.6805013349081
 31
0.0
  0
LINE
  5
3F2
  8
DEFAULT
 10
5587.552236150424
 20
-318.680501334909
 30
0.0
 11
5587.552236150424
 21
-293.680501334909
 31
0.0
  0
LINE
  5
3F3
  8
DEFAULT
 10
5192.552236150424
 20
-293.6805013349081
 30
0.0
 11
5192.552236150424
 21
-318.6805013349081
 31
0.0
  0
POINT
  5
3F4
  8
DEFAULT
 10
5192.552236150424
 20
-318.6805013349081
 30
0.0
  0
POINT
  5
3F5
  8
DEFAULT
 10
5192.552236150424
 20
-293.6805013349081
 30
0.0
  0
TEXT
  5
3F6
  8
DEFAULT
  6
CONTINUOUS
 62
     7
 10
5394.117327495798
 20
-400.0576258954849
 30
0.0
 40
5.0
  1
155
  7
TIMES_NEW_ROMAN_REGULAR
  0
LINE
  5
3F7
  8
0
 62
     7
 10
5480.159493499167
 20
-378.1142466744353
 30
0.0
 11
5480.159493499167
 21
-403.1142466744353
 31
0.0
  0
LINE
  5
3F8
  8
0
 62
     7
 10
5480.159493499167
 20
-390.6142466744353
 30
0.0
 11
5480.159493499167
 21
-378.1142466744353
 31
0.0
  0
LINE
  5
3F9
  8
0
 62
     7
 10
5325.159493499167
 20
-390.6142466744353
 30
0.0
 11
5480.159493499167
 21
-390.6142466744353
 31
0.0
  0
LINE
  5
3FA
  8
0
 62
     7
 10
5325.159493499167
 20
-403.1142466744353
 30
0.0
 11
5325.159493499167
 21
-378.1142466744353
 31
0.0
  0
TEXT
  5
3FB
  8
DEFAULT
  6
CONTINUOUS
 10
5157.413488155189
 20
-370.7838016866303
 30
0.0
 40
10.0
  1
LOOP VELCRO
  7
ARIAL_REGULAR
  0
TEXT
  5
3FC
  8
DEFAULT
  6
CONTINUOUS
 62
     7
 10
5200.724745175298
 20
-393.168909603857
 30
0.0
 40
5.0
  1
105
  7
TIMES_NEW_ROMAN_REGULAR
  0
TEXT
  5
3FD
  8
DEFAULT
  6
CONTINUOUS
 62
     7
 10
5067.906722400465
 20
-308.7283077203001
 30
0.0
 40
5.0
  1
100
  7
TIMES_NEW_ROMAN_REGULAR
  0
LINE
  5
3FE
  8
DEFAULT
 10
5127.552236150424
 20
-293.6805013349081
 30
0.0
 11
5127.552236150424
 21
-318.680501334908
 31
0.0
  0
LINE
  5
3FF
  8
0
  6
DASHDOT
 62
     7
 10
5142.552236150425
 20
-314.6805013349083
 30
0.0
 11
5127.552236150424
 21
-318.6805013349083
 31
0.0
  0
LINE
  5
400
  8
0
  6
DASHDOT
 62
     7
 10
5142.552236150425
 20
-297.6805013349081
 30
0.0
 11
5127.552236150424
 21
-293.6805013349081
 31
0.0
  0
LINE
  5
401
  8
DEFAULT
 10
5027.552236150424
 20
-293.6805013349081
 30
0.0
 11
5027.552236150424
 21
-318.6805013349081
 31
0.0
  0
LINE
  5
402
  8
DEFAULT
 10
5127.552236150424
 20
-293.6805013349081
 30
0.0
 11
5027.552236150424
 21
-293.6805013349081
 31
0.0
  0
LINE
  5
403
  8
DEFAULT
 10
5027.552236150424
 20
-318.6805013349081
 30
0.0
 11
5127.552236150424
 21
-318.6805013349081
 31
0.0
  0
LINE
  5
404
  8
DEFAULT
 62
     4
 10
5142.503523412212
 20
-247.19371860406
 30
0.0
 11
5472.503523412212
 21
-247.19371860406
 31
0.0
  0
LINE
  5
405
  8
DEFAULT
 62
     4
 10
5472.503523412212
 20
-247.19371860406
 30
0.0
 11
5472.503523412212
 21
-222.19371860406
 31
0.0
  0
LINE
  5
406
  8
DEFAULT
 62
     4
 10
5472.503523412212
 20
-222.19371860406
 30
0.0
 11
5142.503523412212
 21
-222.19371860406
 31
0.0
  0
LINE
  5
407
  8
DEFAULT
 62
     4
 10
5142.503523412212
 20
-222.19371860406
 30
0.0
 11
5142.503523412212
 21
-247.19371860406
 31
0.0
  0
LINE
  5
408
  8
DEFAULT
 62
     4
 10
5246.730817731214
 20
21.18101255341029
 30
-0.0000000000000352
 11
5246.730817731214
 21
0.6456965735961031
 31
-0.0000000000000352
  0
LINE
  5
409
  8
DEFAULT
 62
     4
 10
5247.730817731214
 20
19.90560435297816
 30
-0.0000000000000352
 11
5247.730817731214
 21
-0.3543034264038969
 31
-0.0000000000000352
  0
LINE
  5
40A
  8
DEFAULT
 62
     4
 10
5247.730817731214
 20
-0.3543034264038969
 30
-0.0000000000000352
 11
5245.730817731214
 21
-0.3543034264043516
 31
-0.0000000000000352
  0
LINE
  5
40B
  8
DEFAULT
 62
     4
 10
5245.730817731214
 20
-0.3543034264043516
 30
-0.0000000000000352
 11
5245.730817731214
 21
9.645696573595648
 31
-0.0000000000000352
  0
LINE
  5
40C
  8
DEFAULT
 62
     4
 10
5243.730817731217
 20
-101.7580040274347
 30
0.000000000000004
 11
5245.730817731214
 21
-101.2270027484694
 31
0.0
  0
LINE
  5
40D
  8
DEFAULT
 62
     4
 10
5245.730817731214
 20
-101.2270027484694
 30
0.0
 11
5247.06818099851
 21
-100.8551404120085
 31
-0.0000000000000026
  0
LINE
  5
40E
  8
DEFAULT
 62
     4
 10
5247.06818099851
 20
-100.8551404120085
 30
-0.0000000000000026
 11
5248.395674992798
 21
-100.4525847457636
 31
-0.0000000000000052
  0
LINE
  5
40F
  8
DEFAULT
 62
     4
 10
5248.395674992798
 20
-100.4525847457636
 30
-0.0000000000000052
 11
5249.712927772855
 21
-100.01983865957
 31
-0.0000000000000076
  0
LINE
  5
410
  8
DEFAULT
 62
     4
 10
5249.712927772855
 20
-100.01983865957
 30
-0.0000000000000076
 11
5251.019567397448
 21
-99.55740506326268
 31
-0.00000000000001
  0
LINE
  5
411
  8
DEFAULT
 62
     4
 10
5251.019567397448
 20
-99.55740506326268
 30
-0.00000000000001
 11
5252.315221925353
 21
-99.06578686667694
 31
-0.0000000000000123
  0
LINE
  5
412
  8
DEFAULT
 62
     4
 10
5252.315221925353
 20
-99.06578686667694
 30
-0.0000000000000123
 11
5253.599519415344
 21
-98.54548697964795
 31
-0.0000000000000145
  0
LINE
  5
413
  8
DEFAULT
 62
     4
 10
5253.599519415344
 20
-98.54548697964795
 30
-0.0000000000000145
 11
5254.872087926192
 21
-97.99700831201082
 31
-0.0000000000000167
  0
LINE
  5
414
  8
DEFAULT
 62
     4
 10
5254.872087926192
 20
-97.99700831201082
 30
-0.0000000000000167
 11
5256.132555516669
 21
-97.42085377360075
 31
-0.0000000000000188
  0
LINE
  5
415
  8
DEFAULT
 62
     4
 10
5256.132555516669
 20
-97.42085377360075
 30
-0.0000000000000188
 11
5257.380550245547
 21
-96.81752627425288
 31
-0.0000000000000208
  0
LINE
  5
416
  8
DEFAULT
 62
     4
 10
5257.380550245547
 20
-96.81752627425288
 30
-0.0000000000000208
 11
5258.615700171602
 21
-96.18752872380239
 31
-0.0000000000000227
  0
LINE
  5
417
  8
DEFAULT
 62
     4
 10
5258.615700171602
 20
-96.18752872380239
 30
-0.0000000000000227
 11
5259.837633353603
 21
-95.53136403208444
 31
-0.0000000000000246
  0
LINE
  5
418
  8
DEFAULT
 62
     4
 10
5259.837633353603
 20
-95.53136403208444
 30
-0.0000000000000246
 11
5261.045977850325
 21
-94.84953510893418
 31
-0.0000000000000264
  0
LINE
  5
419
  8
DEFAULT
 62
     4
 10
5261.045977850325
 20
-94.84953510893418
 30
-0.0000000000000264
 11
5262.24036172054
 21
-94.14254486418679
 31
-0.0000000000000281
  0
LINE
  5
41A
  8
DEFAULT
 62
     4
 10
5262.24036172054
 20
-94.14254486418679
 30
-0.0000000000000281
 11
5263.420413023021
 21
-93.41089620767745
 31
-0.0000000000000297
  0
LINE
  5
41B
  8
DEFAULT
 62
     4
 10
5263.420413023021
 20
-93.41089620767745
 30
-0.0000000000000297
 11
5264.58575981654
 21
-92.6550920492413
 31
-0.0000000000000313
  0
LINE
  5
41C
  8
DEFAULT
 62
     4
 10
5264.58575981654
 20
-92.6550920492413
 30
-0.0000000000000313
 11
5265.73603015987
 21
-91.87563529871352
 31
-0.0000000000000329
  0
LINE
  5
41D
  8
DEFAULT
 62
     4
 10
5265.73603015987
 20
-91.87563529871352
 30
-0.0000000000000329
 11
5266.870852111784
 21
-91.07302886592926
 31
-0.0000000000000343
  0
LINE
  5
41E
  8
DEFAULT
 62
     4
 10
5266.870852111784
 20
-91.07302886592926
 30
-0.0000000000000343
 11
5267.989853731054
 21
-90.2477756607237
 31
-0.0000000000000357
  0
LINE
  5
41F
  8
DEFAULT
 62
     4
 10
5267.989853731054
 20
-90.2477756607237
 30
-0.0000000000000357
 11
5269.092663076453
 21
-89.40037859293201
 31
-0.0000000000000371
  0
LINE
  5
420
  8
DEFAULT
 62
     4
 10
5269.092663076453
 20
-89.40037859293201
 30
-0.0000000000000371
 11
5270.178908206753
 21
-88.53134057238933
 31
-0.0000000000000384
  0
LINE
  5
421
  8
DEFAULT
 62
     4
 10
5270.178908206753
 20
-88.53134057238933
 30
-0.0000000000000384
 11
5271.248217180729
 21
-87.64116450893083
 31
-0.0000000000000396
  0
LINE
  5
422
  8
DEFAULT
 62
     4
 10
5271.248217180729
 20
-87.64116450893083
 30
-0.0000000000000396
 11
5272.30021805715
 21
-86.73035331239168
 31
-0.0000000000000408
  0
LINE
  5
423
  8
DEFAULT
 62
     4
 10
5272.30021805715
 20
-86.73035331239168
 30
-0.0000000000000408
 11
5273.334538894793
 21
-85.79940989260709
 31
-0.0000000000000419
  0
LINE
  5
424
  8
DEFAULT
 62
     4
 10
5273.334538894793
 20
-85.79940989260709
 30
-0.0000000000000419
 11
5274.350807752427
 21
-84.84883715941214
 31
-0.000000000000043
  0
LINE
  5
425
  8
DEFAULT
 62
     4
 10
5274.350807752427
 20
-84.84883715941214
 30
-0.000000000000043
 11
5275.348652688826
 21
-83.87913802264205
 31
-0.000000000000044
  0
LINE
  5
426
  8
DEFAULT
 62
     4
 10
5275.348652688826
 20
-83.87913802264205
 30
-0.000000000000044
 11
5276.327701762763
 21
-82.89081539213197
 31
-0.0000000000000449
  0
LINE
  5
427
  8
DEFAULT
 62
     4
 10
5276.327701762763
 20
-82.89081539213197
 30
-0.0000000000000449
 11
5277.28758303301
 21
-81.88437217771707
 31
-0.0000000000000459
  0
LINE
  5
428
  8
DEFAULT
 62
     4
 10
5277.28758303301
 20
-81.88437217771707
 30
-0.0000000000000459
 11
5278.227924558341
 21
-80.8603112892325
 31
-0.0000000000000467
  0
LINE
  5
429
  8
DEFAULT
 62
     4
 10
5278.227924558341
 20
-80.8603112892325
 30
-0.0000000000000467
 11
5279.148354397527
 21
-79.81913563651345
 31
-0.0000000000000475
  0
LINE
  5
42A
  8
DEFAULT
 62
     4
 10
5279.148354397527
 20
-79.81913563651345
 30
-0.0000000000000475
 11
5280.048500609342
 21
-78.76134812939506
 31
-0.0000000000000483
  0
LINE
  5
42B
  8
DEFAULT
 62
     4
 10
5280.048500609342
 20
-78.76134812939506
 30
-0.0000000000000483
 11
5280.927991252558
 21
-77.68745167771249
 31
-0.0000000000000491
  0
LINE
  5
42C
  8
DEFAULT
 62
     4
 10
5280.927991252558
 20
-77.68745167771249
 30
-0.0000000000000491
 11
5281.786454385947
 21
-76.59794919130093
 31
-0.0000000000000497
  0
LINE
  5
42D
  8
DEFAULT
 62
     4
 10
5281.786454385947
 20
-76.59794919130093
 30
-0.0000000000000497
 11
5282.623518068282
 21
-75.49334357999552
 31
-0.0000000000000504
  0
LINE
  5
42E
  8
DEFAULT
 62
     4
 10
5282.623518068282
 20
-75.49334357999552
 30
-0.0000000000000504
 11
5283.438810358337
 21
-74.37413775363146
 31
-0.000000000000051
  0
LINE
  5
42F
  8
DEFAULT
 62
     4
 10
5283.438810358337
 20
-74.37413775363146
 30
-0.000000000000051
 11
5284.231959314884
 21
-73.24083462204389
 31
-0.0000000000000516
  0
LINE
  5
430
  8
DEFAULT
 62
     4
 10
5284.231959314884
 20
-73.24083462204389
 30
-0.0000000000000516
 11
5285.002592996696
 21
-72.09393709506799
 31
-0.0000000000000521
  0
LINE
  5
431
  8
DEFAULT
 62
     4
 10
5285.002592996696
 20
-72.09393709506799
 30
-0.0000000000000521
 11
5285.750339462545
 21
-70.93394808253889
 31
-0.0000000000000526
  0
LINE
  5
432
  8
DEFAULT
 62
     4
 10
5285.750339462545
 20
-70.93394808253889
 30
-0.0000000000000526
 11
5286.474826771203
 21
-69.76137049429178
 31
-0.000000000000053
  0
LINE
  5
433
  8
DEFAULT
 62
     4
 10
5286.474826771203
 20
-69.76137049429178
 30
-0.000000000000053
 11
5287.175682981444
 21
-68.57670724016184
 31
-0.0000000000000535
  0
LINE
  5
434
  8
DEFAULT
 62
     4
 10
5287.175682981444
 20
-68.57670724016184
 30
-0.0000000000000535
 11
5287.852536152039
 21
-67.3804612299842
 31
-0.0000000000000538
  0
LINE
  5
435
  8
DEFAULT
 62
     4
 10
5287.852536152039
 20
-67.3804612299842
 30
-0.0000000000000538
 11
5288.505014341762
 21
-66.17313537359405
 31
-0.0000000000000542
  0
LINE
  5
436
  8
DEFAULT
 62
     4
 10
5288.505014341762
 20
-66.17313537359405
 30
-0.0000000000000542
 11
5289.132745609386
 21
-64.95523258082655
 31
-0.0000000000000545
  0
LINE
  5
437
  8
DEFAULT
 62
     4
 10
5289.132745609386
 20
-64.95523258082655
 30
-0.0000000000000545
 11
5289.735358013683
 21
-63.72725576151686
 31
-0.0000000000000548
  0
LINE
  5
438
  8
DEFAULT
 62
     4
 10
5289.735358013683
 20
-63.72725576151686
 30
-0.0000000000000548
 11
5290.312479613426
 21
-62.48970782550015
 31
-0.0000000000000551
  0
LINE
  5
439
  8
DEFAULT
 62
     4
 10
5290.312479613426
 20
-62.48970782550015
 30
-0.0000000000000551
 11
5290.863738467388
 21
-61.24309168261158
 31
-0.0000000000000554
  0
LINE
  5
43A
  8
DEFAULT
 62
     4
 10
5290.863738467388
 20
-61.24309168261158
 30
-0.0000000000000554
 11
5291.38876263434
 21
-59.9879102426863
 31
-0.0000000000000556
  0
LINE
  5
43B
  8
DEFAULT
 62
     4
 10
5291.38876263434
 20
-59.9879102426863
 30
-0.0000000000000556
 11
5291.887180173057
 21
-58.7246664155595
 31
-0.0000000000000558
  0
LINE
  5
43C
  8
DEFAULT
 62
     4
 10
5291.887180173057
 20
-58.7246664155595
 30
-0.0000000000000558
 11
5292.35861914231
 21
-57.45386311106634
 31
-0.000000000000056
  0
LINE
  5
43D
  8
DEFAULT
 62
     4
 10
5292.35861914231
 20
-57.45386311106634
 30
-0.000000000000056
 11
5292.802707600872
 21
-56.17600323904198
 31
-0.0000000000000561
  0
LINE
  5
43E
  8
DEFAULT
 62
     4
 10
5292.802707600872
 20
-56.17600323904198
 30
-0.0000000000000561
 11
5293.219073607516
 21
-54.89158970932158
 31
-0.0000000000000562
  0
LINE
  5
43F
  8
DEFAULT
 62
     4
 10
5293.219073607516
 20
-54.89158970932158
 30
-0.0000000000000562
 11
5293.607345221015
 21
-53.60112543174031
 31
-0.0000000000000564
  0
LINE
  5
440
  8
DEFAULT
 62
     4
 10
5293.607345221015
 20
-53.60112543174031
 30
-0.0000000000000564
 11
5293.967150500141
 21
-52.30511331613333
 31
-0.0000000000000565
  0
LINE
  5
441
  8
DEFAULT
 62
     4
 10
5293.967150500141
 20
-52.30511331613333
 30
-0.0000000000000565
 11
5294.298117503666
 21
-51.00405627233581
 31
-0.0000000000000566
  0
LINE
  5
442
  8
DEFAULT
 62
     4
 10
5294.298117503666
 20
-51.00405627233581
 30
-0.0000000000000566
 11
5294.599874290365
 21
-49.69845721018292
 31
-0.0000000000000566
  0
LINE
  5
443
  8
DEFAULT
 62
     4
 10
5294.599874290365
 20
-49.69845721018292
 30
-0.0000000000000566
 11
5294.872048919007
 21
-48.38881903950981
 31
-0.0000000000000567
  0
LINE
  5
444
  8
DEFAULT
 62
     4
 10
5294.872048919007
 20
-48.38881903950981
 30
-0.0000000000000567
 11
5295.114269448368
 21
-47.07564467015166
 31
-0.0000000000000567
  0
LINE
  5
445
  8
DEFAULT
 62
     4
 10
5295.114269448368
 20
-47.07564467015166
 30
-0.0000000000000567
 11
5295.32616393722
 21
-45.75943701194363
 31
-0.0000000000000568
  0
LINE
  5
446
  8
DEFAULT
 62
     4
 10
5295.32616393722
 20
-45.75943701194363
 30
-0.0000000000000568
 11
5295.507360444335
 21
-44.44069897472087
 31
-0.0000000000000568
  0
LINE
  5
447
  8
DEFAULT
 62
     4
 10
5295.507360444335
 20
-44.44069897472087
 30
-0.0000000000000568
 11
5295.657487028486
 21
-43.11993346831856
 31
-0.0000000000000568
  0
LINE
  5
448
  8
DEFAULT
 62
     4
 10
5295.657487028486
 20
-43.11993346831856
 30
-0.0000000000000568
 11
5295.776171748445
 21
-41.79764340257187
 31
-0.0000000000000568
  0
LINE
  5
449
  8
DEFAULT
 62
     4
 10
5295.776171748445
 20
-41.79764340257187
 30
-0.0000000000000568
 11
5295.863042662986
 21
-40.47433168731595
 31
-0.0000000000000568
  0
LINE
  5
44A
  8
DEFAULT
 62
     4
 10
5295.863042662986
 20
-40.47433168731595
 30
-0.0000000000000568
 11
5295.91772783088
 21
-39.15050123238598
 31
-0.0000000000000568
  0
LINE
  5
44B
  8
DEFAULT
 62
     4
 10
5295.91772783088
 20
-39.15050123238598
 30
-0.0000000000000568
 11
5295.939855310902
 21
-37.82665494761711
 31
-0.0000000000000568
  0
LINE
  5
44C
  8
DEFAULT
 62
     4
 10
5295.939855310902
 20
-37.82665494761711
 30
-0.0000000000000568
 11
5295.929053161823
 21
-36.50329574284451
 31
-0.0000000000000568
  0
LINE
  5
44D
  8
DEFAULT
 62
     4
 10
5295.929053161823
 20
-36.50329574284451
 30
-0.0000000000000568
 11
5295.891150510566
 21
-35.31792838655821
 31
-0.0000000000000568
  0
LINE
  5
44E
  8
DEFAULT
 62
     4
 10
5295.891150510566
 20
-35.31792838655821
 30
-0.0000000000000568
 11
5295.826655860286
 21
-34.13373591563708
 31
-0.0000000000000568
  0
LINE
  5
44F
  8
DEFAULT
 62
     4
 10
5295.826655860286
 20
-34.13373591563708
 30
-0.0000000000000568
 11
5295.735733309588
 21
-32.95109780957446
 31
-0.0000000000000568
  0
LINE
  5
450
  8
DEFAULT
 62
     4
 10
5295.735733309588
 20
-32.95109780957446
 30
-0.0000000000000568
 11
5295.618546957076
 21
-31.77039354786367
 31
-0.0000000000000569
  0
LINE
  5
451
  8
DEFAULT
 62
     4
 10
5295.618546957076
 20
-31.77039354786367
 30
-0.0000000000000569
 11
5295.475260901356
 21
-30.59200260999804
 31
-0.0000000000000569
  0
LINE
  5
452
  8
DEFAULT
 62
     4
 10
5295.475260901356
 20
-30.59200260999804
 30
-0.0000000000000569
 11
5295.306039241032
 21
-29.41630447547088
 31
-0.0000000000000569
  0
LINE
  5
453
  8
DEFAULT
 62
     4
 10
5295.306039241032
 20
-29.41630447547088
 30
-0.0000000000000569
 11
5295.11104607471
 21
-28.24367862377553
 31
-0.0000000000000569
  0
LINE
  5
454
  8
DEFAULT
 62
     4
 10
5295.11104607471
 20
-28.24367862377553
 30
-0.0000000000000569
 11
5294.890445500996
 21
-27.0745045344053
 31
-0.000000000000057
  0
LINE
  5
455
  8
DEFAULT
 62
     4
 10
5294.890445500996
 20
-27.0745045344053
 30
-0.000000000000057
 11
5294.644401618494
 21
-25.90916168685352
 31
-0.000000000000057
  0
LINE
  5
456
  8
DEFAULT
 62
     4
 10
5294.644401618494
 20
-25.90916168685352
 30
-0.000000000000057
 11
5294.373078525809
 21
-24.74802956061352
 31
-0.0000000000000571
  0
LINE
  5
457
  8
DEFAULT
 62
     4
 10
5294.373078525809
 20
-24.74802956061352
 30
-0.0000000000000571
 11
5294.076640321546
 21
-23.59148763517862
 31
-0.0000000000000572
  0
LINE
  5
458
  8
DEFAULT
 62
     4
 10
5294.076640321546
 20
-23.59148763517862
 30
-0.0000000000000572
 11
5293.75525110431
 21
-22.43991539004214
 31
-0.0000000000000572
  0
LINE
  5
459
  8
DEFAULT
 62
     4
 10
5293.75525110431
 20
-22.43991539004214
 30
-0.0000000000000572
 11
5293.409074972707
 21
-21.29369230469741
 31
-0.0000000000000574
  0
LINE
  5
45A
  8
DEFAULT
 62
     4
 10
5293.409074972707
 20
-21.29369230469741
 30
-0.0000000000000574
 11
5293.038276025341
 21
-20.15319785863775
 31
-0.0000000000000575
  0
LINE
  5
45B
  8
DEFAULT
 62
     4
 10
5293.038276025341
 20
-20.15319785863775
 30
-0.0000000000000575
 11
5292.643018360817
 21
-19.01881153135649
 31
-0.0000000000000576
  0
LINE
  5
45C
  8
DEFAULT
 62
     4
 10
5292.643018360817
 20
-19.01881153135649
 30
-0.0000000000000576
 11
5292.223466077741
 21
-17.89091280234695
 31
-0.0000000000000578
  0
LINE
  5
45D
  8
DEFAULT
 62
     4
 10
5292.223466077741
 20
-17.89091280234695
 30
-0.0000000000000578
 11
5291.779783274717
 21
-16.76988115110246
 31
-0.000000000000058
  0
LINE
  5
45E
  8
DEFAULT
 62
     4
 10
5291.779783274717
 20
-16.76988115110246
 30
-0.000000000000058
 11
5291.312134050351
 21
-15.65609605711634
 31
-0.0000000000000582
  0
LINE
  5
45F
  8
DEFAULT
 62
     4
 10
5291.312134050351
 20
-15.65609605711634
 30
-0.0000000000000582
 11
5290.820682503247
 21
-14.54993699988191
 31
-0.0000000000000584
  0
LINE
  5
460
  8
DEFAULT
 62
     4
 10
5290.820682503247
 20
-14.54993699988191
 30
-0.0000000000000584
 11
5290.305592732011
 21
-13.4517834588925
 31
-0.0000000000000587
  0
LINE
  5
461
  8
DEFAULT
 62
     4
 10
5290.305592732011
 20
-13.4517834588925
 30
-0.0000000000000587
 11
5289.767028835247
 21
-12.36201491364144
 31
-0.000000000000059
  0
LINE
  5
462
  8
DEFAULT
 62
     4
 10
5289.767028835247
 20
-12.36201491364144
 30
-0.000000000000059
 11
5289.205154911562
 21
-11.28101084362204
 31
-0.0000000000000593
  0
LINE
  5
463
  8
DEFAULT
 62
     4
 10
5289.205154911562
 20
-11.28101084362204
 30
-0.0000000000000593
 11
5288.620135059558
 21
-10.20915072832763
 31
-0.0000000000000597
  0
LINE
  5
464
  8
DEFAULT
 62
     4
 10
5288.620135059558
 20
-10.20915072832763
 30
-0.0000000000000597
 11
5288.012133377842
 21
-9.146814047251539
 31
-0.0000000000000601
  0
LINE
  5
465
  8
DEFAULT
 62
     4
 10
5288.012133377842
 20
-9.146814047251539
 30
-0.0000000000000601
 11
5287.381313965019
 21
-8.094380279887087
 31
-0.0000000000000605
  0
LINE
  5
466
  8
DEFAULT
 62
     4
 10
5287.381313965019
 20
-8.094380279887087
 30
-0.0000000000000605
 11
5286.727840919695
 21
-7.0522289057276
 31
-0.0000000000000609
  0
LINE
  5
467
  8
DEFAULT
 62
     4
 10
5286.727840919695
 20
-7.0522289057276
 30
-0.0000000000000609
 11
5286.051878340473
 21
-6.020739404266402
 31
-0.0000000000000614
  0
LINE
  5
468
  8
DEFAULT
 62
     4
 10
5286.051878340473
 20
-6.020739404266402
 30
-0.0000000000000614
 11
5285.35359032596
 21
-5.000291254996816
 31
-0.0000000000000619
  0
LINE
  5
469
  8
DEFAULT
 62
     4
 10
5285.35359032596
 20
-5.000291254996816
 30
-0.0000000000000619
 11
5284.633140974759
 21
-3.991263937412168
 31
-0.0000000000000625
  0
LINE
  5
46A
  8
DEFAULT
 62
     4
 10
5284.633140974759
 20
-3.991263937412168
 30
-0.0000000000000625
 11
5283.890694385476
 21
-2.994036931005782
 31
-0.0000000000000631
  0
LINE
  5
46B
  8
DEFAULT
 62
     4
 10
5283.890694385476
 20
-2.994036931005782
 30
-0.0000000000000631
 11
5283.126414656716
 21
-2.008989715270982
 31
-0.0000000000000638
  0
LINE
  5
46C
  8
DEFAULT
 62
     4
 10
5283.126414656716
 20
-2.008989715270982
 30
-0.0000000000000638
 11
5282.340465887085
 21
-1.036501769701092
 31
-0.0000000000000645
  0
LINE
  5
46D
  8
DEFAULT
 62
     4
 10
5282.340465887085
 20
-1.036501769701092
 30
-0.0000000000000645
 11
5281.533012175187
 21
-0.0769525737894362
 31
-0.0000000000000652
  0
LINE
  5
46E
  8
DEFAULT
 62
     4
 10
5281.533012175187
 20
-0.0769525737894362
 30
-0.0000000000000652
 11
5280.704217619627
 21
0.8692783929706605
 31
-0.000000000000066
  0
LINE
  5
46F
  8
DEFAULT
 62
     4
 10
5280.704217619627
 20
0.8692783929706605
 30
-0.000000000000066
 11
5279.854246319012
 21
1.801811651085874
 31
-0.0000000000000668
  0
LINE
  5
470
  8
DEFAULT
 62
     4
 10
5279.854246319012
 20
1.801811651085874
 30
-0.0000000000000668
 11
5278.983262371943
 21
2.720267721062879
 31
-0.0000000000000677
  0
LINE
  5
471
  8
DEFAULT
 62
     4
 10
5278.983262371943
 20
2.720267721062879
 30
-0.0000000000000677
 11
5278.091429877029
 21
3.624267123408353
 31
-0.0000000000000686
  0
LINE
  5
472
  8
DEFAULT
 62
     4
 10
5278.091429877029
 20
3.624267123408353
 30
-0.0000000000000686
 11
5277.178912932873
 21
4.513430378628971
 31
-0.0000000000000696
  0
LINE
  5
473
  8
DEFAULT
 62
     4
 10
5277.178912932873
 20
4.513430378628971
 30
-0.0000000000000696
 11
5276.24587563808
 21
5.387378007231409
 31
-0.0000000000000706
  0
LINE
  5
474
  8
DEFAULT
 62
     4
 10
5276.24587563808
 20
5.387378007231409
 30
-0.0000000000000706
 11
5275.292482091257
 21
6.245730529722342
 31
-0.0000000000000717
  0
LINE
  5
475
  8
DEFAULT
 62
     4
 10
5275.292482091257
 20
6.245730529722342
 30
-0.0000000000000717
 11
5274.318896391007
 21
7.088108466608445
 31
-0.0000000000000729
  0
LINE
  5
476
  8
DEFAULT
 62
     4
 10
5274.318896391007
 20
7.088108466608445
 30
-0.0000000000000729
 11
5273.325282635936
 21
7.914132338396396
 31
-0.0000000000000741
  0
LINE
  5
477
  8
DEFAULT
 62
     4
 10
5273.325282635936
 20
7.914132338396396
 30
-0.0000000000000741
 11
5272.311804924649
 21
8.723422665592867
 31
-0.0000000000000753
  0
LINE
  5
478
  8
DEFAULT
 62
     4
 10
5272.311804924649
 20
8.723422665592867
 30
-0.0000000000000753
 11
5271.27862735575
 21
9.515599968704537
 31
-0.0000000000000766
  0
LINE
  5
479
  8
DEFAULT
 62
     4
 10
5271.27862735575
 20
9.515599968704537
 30
-0.0000000000000766
 11
5270.225914027846
 21
10.29028476823808
 31
-0.000000000000078
  0
LINE
  5
47A
  8
DEFAULT
 62
     4
 10
5270.225914027846
 20
10.29028476823808
 30
-0.000000000000078
 11
5269.15382903954
 21
11.04709758470017
 31
-0.0000000000000795
  0
LINE
  5
47B
  8
DEFAULT
 62
     4
 10
5269.15382903954
 20
11.04709758470017
 30
-0.0000000000000795
 11
5268.062536489439
 21
11.78565893859749
 31
-0.000000000000081
  0
LINE
  5
47C
  8
DEFAULT
 62
     4
 10
5268.062536489439
 20
11.78565893859749
 30
-0.000000000000081
 11
5266.952200476146
 21
12.50558935043671
 31
-0.0000000000000826
  0
LINE
  5
47D
  8
DEFAULT
 62
     4
 10
5266.952200476146
 20
12.50558935043671
 30
-0.0000000000000826
 11
5265.822985098266
 21
13.20650934072451
 31
-0.0000000000000842
  0
LINE
  5
47E
  8
DEFAULT
 62
     4
 10
5265.822985098266
 20
13.20650934072451
 30
-0.0000000000000842
 11
5264.675054454407
 21
13.88803942996755
 31
-0.0000000000000859
  0
LINE
  5
47F
  8
DEFAULT
 62
     4
 10
5264.675054454407
 20
13.88803942996755
 30
-0.0000000000000859
 11
5263.508572643172
 21
14.54980013867253
 31
-0.0000000000000877
  0
LINE
  5
480
  8
DEFAULT
 62
     4
 10
5263.508572643172
 20
14.54980013867253
 30
-0.0000000000000877
 11
5262.323703763166
 21
15.1914119873461
 31
-0.0000000000000895
  0
LINE
  5
481
  8
DEFAULT
 62
     4
 10
5262.323703763166
 20
15.1914119873461
 30
-0.0000000000000895
 11
5261.120611912994
 21
15.81249549649496
 31
-0.0000000000000915
  0
LINE
  5
482
  8
DEFAULT
 62
     4
 10
5261.120611912994
 20
15.81249549649496
 30
-0.0000000000000915
 11
5259.899461191262
 21
16.41267118662577
 31
-0.0000000000000934
  0
LINE
  5
483
  8
DEFAULT
 62
     4
 10
5259.899461191262
 20
16.41267118662577
 30
-0.0000000000000934
 11
5258.660415696573
 21
16.99155957824522
 31
-0.0000000000000955
  0
LINE
  5
484
  8
DEFAULT
 62
     4
 10
5258.660415696573
 20
16.99155957824522
 30
-0.0000000000000955
 11
5257.403639527535
 21
17.54878119185997
 31
-0.0000000000000977
  0
LINE
  5
485
  8
DEFAULT
 62
     4
 10
5257.403639527535
 20
17.54878119185997
 30
-0.0000000000000977
 11
5256.129296782751
 21
18.0839565479767
 31
-0.0000000000000999
  0
LINE
  5
486
  8
DEFAULT
 62
     4
 10
5256.129296782751
 20
18.0839565479767
 30
-0.0000000000000999
 11
5254.837551560826
 21
18.59670616710209
 31
-0.0000000000001022
  0
LINE
  5
487
  8
DEFAULT
 62
     4
 10
5254.837551560826
 20
18.59670616710209
 30
-0.0000000000001022
 11
5253.528567960366
 21
19.08665056974282
 31
-0.0000000000001046
  0
LINE
  5
488
  8
DEFAULT
 62
     4
 10
5253.528567960366
 20
19.08665056974282
 30
-0.0000000000001046
 11
5252.202510079976
 21
19.55341027640554
 31
-0.0000000000001071
  0
LINE
  5
489
  8
DEFAULT
 62
     4
 10
5252.202510079976
 20
19.55341027640554
 30
-0.0000000000001071
 11
5250.859542018261
 21
19.99660580759696
 31
-0.0000000000001096
  0
LINE
  5
48A
  8
DEFAULT
 62
     4
 10
5250.859542018261
 20
19.99660580759696
 30
-0.0000000000001096
 11
5249.499827873825
 21
20.41585768382374
 31
-0.0000000000001122
  0
LINE
  5
48B
  8
DEFAULT
 62
     4
 10
5249.499827873825
 20
20.41585768382374
 30
-0.0000000000001122
 11
5248.123531745274
 21
20.81078642559255
 31
-0.000000000000115
  0
LINE
  5
48C
  8
DEFAULT
 62
     4
 10
5248.123531745274
 20
20.81078642559255
 30
-0.000000000000115
 11
5246.730817731213
 21
21.18101255341007
 31
-0.0000000000001178
  0
LINE
  5
48D
  8
DEFAULT
 62
     4
 10
5244.730817731213
 20
-100.4912217739136
 30
-0.0000000000000568
 11
5246.730817731214
 21
-99.91160236047405
 31
-0.0000000000000568
  0
LINE
  5
48E
  8
DEFAULT
 62
     4
 10
5246.730817731214
 20
-99.91160236047405
 30
-0.0000000000000568
 11
5247.725831697804
 21
-99.61360231018186
 31
-0.0000000000000568
  0
LINE
  5
48F
  8
DEFAULT
 62
     4
 10
5247.725831697804
 20
-99.61360231018186
 30
-0.0000000000000568
 11
5248.715419047505
 21
-99.29801930211428
 31
-0.0000000000000568
  0
LINE
  5
490
  8
DEFAULT
 62
     4
 10
5248.715419047505
 20
-99.29801930211428
 30
-0.0000000000000568
 11
5250.677266117827
 21
-98.61509833829497
 31
-0.0000000000000568
  0
LINE
  5
491
  8
DEFAULT
 62
     4
 10
5250.677266117827
 20
-98.61509833829497
 30
-0.0000000000000568
 11
5251.954220399882
 21
-98.12908897730054
 31
-0.0000000000000568
  0
LINE
  5
492
  8
DEFAULT
 62
     4
 10
5251.954220399882
 20
-98.12908897730054
 30
-0.0000000000000568
 11
5253.21994271427
 21
-97.61453233486262
 31
-0.0000000000000568
  0
LINE
  5
493
  8
DEFAULT
 62
     4
 10
5253.21994271427
 20
-97.61453233486262
 30
-0.0000000000000568
 11
5254.473951108407
 21
-97.07201673693828
 31
-0.0000000000000568
  0
LINE
  5
494
  8
DEFAULT
 62
     4
 10
5254.473951108407
 20
-97.07201673693828
 30
-0.0000000000000568
 11
5255.715763629711
 21
-96.50213050948472
 31
-0.0000000000000568
  0
LINE
  5
495
  8
DEFAULT
 62
     4
 10
5255.715763629711
 20
-96.50213050948472
 30
-0.0000000000000568
 11
5256.948096500077
 21
-95.90387085304678
 31
-0.0000000000000568
  0
LINE
  5
496
  8
DEFAULT
 62
     4
 10
5256.948096500077
 20
-95.90387085304678
 30
-0.0000000000000568
 11
5258.167288779981
 21
-95.27926336849555
 31
-0.0000000000000568
  0
LINE
  5
497
  8
DEFAULT
 62
     4
 10
5258.167288779981
 20
-95.27926336849555
 30
-0.0000000000000568
 11
5259.37294380883
 21
-94.62888217900388
 31
-0.0000000000000568
  0
LINE
  5
498
  8
DEFAULT
 62
     4
 10
5259.37294380883
 20
-94.62888217900388
 30
-0.0000000000000568
 11
5260.564664926022
 21
-93.95330140774456
 31
-0.0000000000000568
  0
LINE
  5
499
  8
DEFAULT
 62
     4
 10
5260.564664926022
 20
-93.95330140774456
 30
-0.0000000000000568
 11
5261.745699908504
 21
-93.25087593876952
 31
-0.0000000000000568
  0
LINE
  5
49A
  8
DEFAULT
 62
     4
 10
5261.745699908504
 20
-93.25087593876952
 30
-0.0000000000000568
 11
5262.911977910508
 21
-92.52421033565363
 31
-0.0000000000000568
  0
LINE
  5
49B
  8
DEFAULT
 62
     4
 10
5262.911977910508
 20
-92.52421033565363
 30
-0.0000000000000568
 11
5264.063161675733
 21
-91.77384312029838
 31
-0.0000000000000568
  0
LINE
  5
49C
  8
DEFAULT
 62
     4
 10
5264.063161675733
 20
-91.77384312029838
 30
-0.0000000000000568
 11
5265.198913947879
 21
-91.00031281460521
 31
-0.0000000000000568
  0
LINE
  5
49D
  8
DEFAULT
 62
     4
 10
5265.198913947879
 20
-91.00031281460521
 30
-0.0000000000000568
 11
5266.322026480306
 21
-90.201883773806
 31
-0.0000000000000568
  0
LINE
  5
49E
  8
DEFAULT
 62
     4
 10
5266.322026480306
 20
-90.201883773806
 30
-0.0000000000000568
 11
5267.428982927169
 21
-89.38120143928785
 31
-0.0000000000000568
  0
LINE
  5
49F
  8
DEFAULT
 62
     4
 10
5267.428982927169
 20
-89.38120143928785
 30
-0.0000000000000568
 11
5268.519484625596
 21
-88.53876431179526
 31
-0.0000000000000568
  0
LINE
  5
4A0
  8
DEFAULT
 62
     4
 10
5268.519484625596
 20
-88.53876431179526
 30
-0.0000000000000568
 11
5269.59323291271
 21
-87.67507089207284
 31
-0.0000000000000568
  0
LINE
  5
4A1
  8
DEFAULT
 62
     4
 10
5269.59323291271
 20
-87.67507089207284
 30
-0.0000000000000568
 11
5270.651860581675
 21
-86.78896398223418
 31
-0.0000000000000568
  0
LINE
  5
4A2
  8
DEFAULT
 62
     4
 10
5270.651860581675
 20
-86.78896398223418
 30
-0.0000000000000568
 11
5271.693085521681
 21
-85.88247202310323
 31
-0.0000000000000568
  0
LINE
  5
4A3
  8
DEFAULT
 62
     4
 10
5271.693085521681
 20
-85.88247202310323
 30
-0.0000000000000568
 11
5272.716619918354
 21
-84.95604425360277
 31
-0.0000000000000568
  0
LINE
  5
4A4
  8
DEFAULT
 62
     4
 10
5272.716619918354
 20
-84.95604425360277
 30
-0.0000000000000568
 11
5273.722175957323
 21
-84.01012991265563
 31
-0.0000000000000568
  0
LINE
  5
4A5
  8
DEFAULT
 62
     4
 10
5273.722175957323
 20
-84.01012991265563
 30
-0.0000000000000568
 11
5274.709917779676
 21
-83.0447182683234
 31
-0.0000000000000568
  0
LINE
  5
4A6
  8
DEFAULT
 62
     4
 10
5274.709917779676
 20
-83.0447182683234
 30
-0.0000000000000568
 11
5275.67907679872
 21
-82.06065446046003
 31
-0.0000000000000568
  0
LINE
  5
4A7
  8
DEFAULT
 62
     4
 10
5275.67907679872
 20
-82.06065446046003
 30
-0.0000000000000568
 11
5276.629353339925
 21
-81.0583413306363
 31
-0.0000000000000568
  0
LINE
  5
4A8
  8
DEFAULT
 62
     4
 10
5276.629353339925
 20
-81.0583413306363
 30
-0.0000000000000568
 11
5277.560447728756
 21
-80.03818172042298
 31
-0.0000000000000568
  0
LINE
  5
4A9
  8
DEFAULT
 62
     4
 10
5277.560447728756
 20
-80.03818172042298
 30
-0.0000000000000568
 11
5278.470999255147
 21
-79.0017980148038
 31
-0.0000000000000568
  0
LINE
  5
4AA
  8
DEFAULT
 62
     4
 10
5278.470999255147
 20
-79.0017980148038
 30
-0.0000000000000568
 11
5279.361785922332
 21
-77.94837940721109
 31
-0.0000000000000568
  0
LINE
  5
4AB
  8
DEFAULT
 62
     4
 10
5279.361785922332
 20
-77.94837940721109
 30
-0.0000000000000568
 11
5280.232479096327
 21
-76.87829380365278
 31
-0.0000000000000568
  0
LINE
  5
4AC
  8
DEFAULT
 62
     4
 10
5280.232479096327
 20
-76.87829380365278
 30
-0.0000000000000568
 11
5281.082750143143
 21
-75.79190911013676
 31
-0.0000000000000568
  0
LINE
  5
4AD
  8
DEFAULT
 62
     4
 10
5281.082750143143
 20
-75.79190911013676
 30
-0.0000000000000568
 11
5281.909861874454
 21
-74.69284794252658
 31
-0.0000000000000567
  0
LINE
  5
4AE
  8
DEFAULT
 62
     4
 10
5281.909861874454
 20
-74.69284794252658
 30
-0.0000000000000567
 11
5282.715983778915
 21
-73.57830227626269
 31
-0.0000000000000557
  0
LINE
  5
4AF
  8
DEFAULT
 62
     4
 10
5282.715983778915
 20
-73.57830227626269
 30
-0.0000000000000557
 11
5283.500755224195
 21
-72.44862546510146
 31
-0.0000000000000528
  0
LINE
  5
4B0
  8
DEFAULT
 62
     4
 10
5283.500755224195
 20
-72.44862546510146
 30
-0.0000000000000528
 11
5284.263815577968
 21
-71.30417086279923
 31
-0.0000000000000473
  0
LINE
  5
4B1
  8
DEFAULT
 62
     4
 10
5284.263815577968
 20
-71.30417086279923
 30
-0.0000000000000473
 11
5285.001391939797
 21
-70.15072816681243
 31
-0.0000000000000387
  0
LINE
  5
4B2
  8
DEFAULT
 62
     4
 10
5285.001391939797
 20
-70.15072816681243
 30
-0.0000000000000387
 11
5285.716691989704
 21
-68.98334333038378
 31
-0.0000000000000283
  0
LINE
  5
4B3
  8
DEFAULT
 62
     4
 10
5285.716691989704
 20
-68.98334333038378
 30
-0.0000000000000283
 11
5286.409305793005
 21
-67.80236445118896
 31
-0.000000000000018
  0
LINE
  5
4B4
  8
DEFAULT
 62
     4
 10
5286.409305793005
 20
-67.80236445118896
 30
-0.000000000000018
 11
5287.078823415015
 21
-66.60813962690366
 31
-0.0000000000000094
  0
LINE
  5
4B5
  8
DEFAULT
 62
     4
 10
5287.078823415015
 20
-66.60813962690366
 30
-0.0000000000000094
 11
5287.720892336902
 21
-65.40854399563878
 31
-0.0000000000000041
  0
LINE
  5
4B6
  8
DEFAULT
 62
     4
 10
5287.720892336902
 20
-65.40854399563878
 30
-0.0000000000000041
 11
5288.339280271685
 21
-64.19657414000491
 31
-0.0000000000000024
  0
LINE
  5
4B7
  8
DEFAULT
 62
     4
 10
5288.339280271685
 20
-64.19657414000491
 30
-0.0000000000000024
 11
5288.933521771976
 21
-62.97259424334045
 31
-0.0000000000000042
  0
LINE
  5
4B8
  8
DEFAULT
 62
     4
 10
5288.933521771976
 20
-62.97259424334045
 30
-0.0000000000000042
 11
5289.503151390387
 21
-61.73696848898383
 31
-0.0000000000000096
  0
LINE
  5
4B9
  8
DEFAULT
 62
     4
 10
5289.503151390387
 20
-61.73696848898383
 30
-0.0000000000000096
 11
5290.043755515823
 21
-60.49934082285043
 31
-0.0000000000000182
  0
LINE
  5
4BA
  8
DEFAULT
 62
     4
 10
5290.043755515823
 20
-60.49934082285043
 30
-0.0000000000000182
 11
5290.559136738982
 21
-59.25100323737583
 31
-0.0000000000000286
  0
LINE
  5
4BB
  8
DEFAULT
 62
     4
 10
5290.559136738982
 20
-59.25100323737583
 30
-0.0000000000000286
 11
5291.048779560339
 21
-57.99236106672161
 31
-0.0000000000000389
  0
LINE
  5
4BC
  8
DEFAULT
 62
     4
 10
5291.048779560339
 20
-57.99236106672161
 30
-0.0000000000000389
 11
5291.512168480364
 21
-56.72381964504937
 31
-0.0000000000000475
  0
LINE
  5
4BD
  8
DEFAULT
 62
     4
 10
5291.512168480364
 20
-56.72381964504937
 30
-0.0000000000000475
 11
5291.945353825628
 21
-55.45618527135949
 31
-0.0000000000000529
  0
LINE
  5
4BE
  8
DEFAULT
 62
     4
 10
5291.945353825628
 20
-55.45618527135949
 30
-0.0000000000000529
 11
5292.351657184509
 21
-54.1796843644606
 31
-0.0000000000000557
  0
LINE
  5
4BF
  8
DEFAULT
 62
     4
 10
5292.351657184509
 20
-54.1796843644606
 30
-0.0000000000000557
 11
5292.730534116901
 21
-52.8947911483708
 31
-0.0000000000000567
  0
LINE
  5
4C0
  8
DEFAULT
 62
     4
 10
5292.730534116901
 20
-52.8947911483708
 30
-0.0000000000000567
 11
5293.081440182695
 21
-51.6019798471082
 31
-0.0000000000000568
  0
LINE
  5
4C1
  8
DEFAULT
 62
     4
 10
5293.081440182695
 20
-51.6019798471082
 30
-0.0000000000000568
 11
5293.401374213757
 21
-50.31212047887467
 31
-0.0000000000000568
  0
LINE
  5
4C2
  8
DEFAULT
 62
     4
 10
5293.401374213757
 20
-50.31212047887467
 30
-0.0000000000000568
 11
5293.692687055351
 21
-49.01550160338148
 31
-0.0000000000000568
  0
LINE
  5
4C3
  8
DEFAULT
 62
     4
 10
5293.692687055351
 20
-49.01550160338148
 30
-0.0000000000000568
 11
5293.954820650682
 21
-47.71268953543809
 31
-0.0000000000000568
  0
LINE
  5
4C4
  8
DEFAULT
 62
     4
 10
5293.954820650682
 20
-47.71268953543809
 30
-0.0000000000000568
 11
5294.18721694296
 21
-46.40425058985394
 31
-0.0000000000000568
  0
LINE
  5
4C5
  8
DEFAULT
 62
     4
 10
5294.18721694296
 20
-46.40425058985394
 30
-0.0000000000000568
 11
5294.38804410494
 21
-45.09975582797874
 31
-0.0000000000000568
  0
LINE
  5
4C6
  8
DEFAULT
 62
     4
 10
5294.38804410494
 20
-45.09975582797874
 30
-0.0000000000000568
 11
5294.558454883931
 21
-43.79094452319674
 31
-0.0000000000000568
  0
LINE
  5
4C7
  8
DEFAULT
 62
     4
 10
5294.558454883931
 20
-43.79094452319674
 30
-0.0000000000000568
 11
5294.697915945251
 21
-42.47849182256174
 31
-0.0000000000000568
  0
LINE
  5
4C8
  8
DEFAULT
 62
     4
 10
5294.697915945251
 20
-42.47849182256174
 30
-0.0000000000000568
 11
5294.805893954231
 21
-41.1630728731275
 31
-0.0000000000000568
  0
LINE
  5
4C9
  8
DEFAULT
 62
     4
 10
5294.805893954231
 20
-41.1630728731275
 30
-0.0000000000000568
 11
5294.88159586027
 21
-39.85139342003161
 31
-0.0000000000000568
  0
LINE
  5
4CA
  8
DEFAULT
 62
     4
 10
5294.88159586027
 20
-39.85139342003161
 30
-0.0000000000000568
 11
5294.925123702575
 21
-38.53825518521683
 31
-0.0000000000000568
  0
LINE
  5
4CB
  8
DEFAULT
 62
     4
 10
5294.925123702575
 20
-38.53825518521683
 30
-0.0000000000000568
 11
5294.93602879955
 21
-37.22446966431809
 31
-0.0000000000000568
  0
LINE
  5
4CC
  8
DEFAULT
 62
     4
 10
5294.93602879955
 20
-37.22446966431809
 30
-0.0000000000000568
 11
5294.913862469598
 21
-35.91084835297031
 31
-0.0000000000000568
  0
LINE
  5
4CD
  8
DEFAULT
 62
     4
 10
5294.913862469598
 20
-35.91084835297031
 30
-0.0000000000000568
 11
5294.864928297594
 21
-34.72112917178083
 31
-0.0000000000000568
  0
LINE
  5
4CE
  8
DEFAULT
 62
     4
 10
5294.864928297594
 20
-34.72112917178083
 30
-0.0000000000000568
 11
5294.788723501997
 21
-33.53282203130568
 31
-0.0000000000000568
  0
LINE
  5
4CF
  8
DEFAULT
 62
     4
 10
5294.788723501997
 20
-33.53282203130568
 30
-0.0000000000000568
 11
5294.685510484044
 21
-32.3465375394388
 31
-0.0000000000000568
  0
LINE
  5
4D0
  8
DEFAULT
 62
     4
 10
5294.685510484044
 20
-32.3465375394388
 30
-0.0000000000000568
 11
5294.555551644977
 21
-31.16288630407411
 31
-0.0000000000000568
  0
LINE
  5
4D1
  8
DEFAULT
 62
     4
 10
5294.555551644977
 20
-31.16288630407411
 30
-0.0000000000000568
 11
5294.398611360237
 21
-29.9789597193328
 31
-0.0000000000000567
  0
LINE
  5
4D2
  8
DEFAULT
 62
     4
 10
5294.398611360237
 20
-29.9789597193328
 30
-0.0000000000000567
 11
5294.215333951919
 21
-28.79883117018274
 31
-0.0000000000000557
  0
LINE
  5
4D3
  8
DEFAULT
 62
     4
 10
5294.215333951919
 20
-28.79883117018274
 30
-0.0000000000000557
 11
5294.006023500548
 21
-27.62303550136402
 31
-0.0000000000000529
  0
LINE
  5
4D4
  8
DEFAULT
 62
     4
 10
5294.006023500548
 20
-27.62303550136402
 30
-0.0000000000000529
 11
5293.770984086644
 21
-26.45210755761673
 31
-0.0000000000000474
  0
LINE
  5
4D5
  8
DEFAULT
 62
     4
 10
5293.770984086644
 20
-26.45210755761673
 30
-0.0000000000000474
 11
5293.509223764514
 21
-25.28103898763158
 31
-0.000000000000039
  0
LINE
  5
4D6
  8
DEFAULT
 62
     4
 10
5293.509223764514
 20
-25.28103898763158
 30
-0.000000000000039
 11
5293.222129559683
 21
-24.11591525682813
 31
-0.0000000000000297
  0
LINE
  5
4D7
  8
DEFAULT
 62
     4
 10
5293.222129559683
 20
-24.11591525682813
 30
-0.0000000000000297
 11
5292.910035111498
 21
-22.95722707564565
 31
-0.0000000000000221
  0
LINE
  5
4D8
  8
DEFAULT
 62
     4
 10
5292.910035111498
 20
-22.95722707564565
 30
-0.0000000000000221
 11
5292.573274059306
 21
-21.80546515452344
 31
-0.0000000000000189
  0
LINE
  5
4D9
  8
DEFAULT
 62
     4
 10
5292.573274059306
 20
-21.80546515452344
 30
-0.0000000000000189
 11
5292.209933669927
 21
-20.65424463442679
 31
-0.000000000000022
  0
LINE
  5
4DA
  8
DEFAULT
 62
     4
 10
5292.209933669927
 20
-20.65424463442679
 30
-0.000000000000022
 11
5291.822310154716
 21
-19.51097445983582
 31
-0.0000000000000295
  0
LINE
  5
4DB
  8
DEFAULT
 62
     4
 10
5291.822310154716
 20
-19.51097445983582
 30
-0.0000000000000295
 11
5291.410747235896
 21
-18.3760984266829
 31
-0.0000000000000388
  0
LINE
  5
4DC
  8
DEFAULT
 62
     4
 10
5291.410747235896
 20
-18.3760984266829
 30
-0.0000000000000388
 11
5290.975588635685
 21
-17.2500603309004
 31
-0.0000000000000473
  0
LINE
  5
4DD
  8
DEFAULT
 62
     4
 10
5290.975588635685
 20
-17.2500603309004
 30
-0.0000000000000473
 11
5290.513962022938
 21
-16.12568809236252
 31
-0.0000000000000528
  0
LINE
  5
4DE
  8
DEFAULT
 62
     4
 10
5290.513962022938
 20
-16.12568809236252
 30
-0.0000000000000528
 11
5290.029113555178
 21
-15.0111308672673
 31
-0.0000000000000556
  0
LINE
  5
4DF
  8
DEFAULT
 62
     4
 10
5290.029113555178
 20
-15.0111308672673
 30
-0.0000000000000556
 11
5289.521392611837
 21
-13.90679448722713
 31
-0.0000000000000567
  0
LINE
  5
4E0
  8
DEFAULT
 62
     4
 10
5289.521392611837
 20
-13.90679448722713
 30
-0.0000000000000567
 11
5288.991148572346
 21
-12.81308478385437
 31
-0.0000000000000568
  0
LINE
  5
4E1
  8
DEFAULT
 62
     4
 10
5288.991148572346
 20
-12.81308478385437
 30
-0.0000000000000568
 11
5288.434599934522
 21
-11.72250994595651
 31
-0.0000000000000568
  0
LINE
  5
4E2
  8
DEFAULT
 62
     4
 10
5288.434599934522
 20
-11.72250994595651
 30
-0.0000000000000568
 11
5287.85590242845
 21
-10.64352066954844
 31
-0.0000000000000568
  0
LINE
  5
4E3
  8
DEFAULT
 62
     4
 10
5287.85590242845
 20
-10.64352066954844
 30
-0.0000000000000568
 11
5287.255407133202
 21
-9.576507692164107
 31
-0.0000000000000568
  0
LINE
  5
4E4
  8
DEFAULT
 62
     4
 10
5287.255407133202
 20
-9.576507692164107
 30
-0.0000000000000568
 11
5286.633465127847
 21
-8.521861751337454
 31
-0.0000000000000568
  0
LINE
  5
4E5
  8
DEFAULT
 62
     4
 10
5286.633465127847
 20
-8.521861751337454
 30
-0.0000000000000568
 11
5285.982788011654
 21
-7.467869485595919
 31
-0.0000000000000568
  0
LINE
  5
4E6
  8
DEFAULT
 62
     4
 10
5285.982788011654
 20
-7.467869485595919
 30
-0.0000000000000568
 11
5285.31086881146
 21
-6.427299301249789
 31
-0.0000000000000568
  0
LINE
  5
4E7
  8
DEFAULT
 62
     4
 10
5285.31086881146
 20
-6.427299301249789
 30
-0.0000000000000568
 11
5284.618056955316
 21
-5.400515617063099
 31
-0.0000000000000568
  0
LINE
  5
4E8
  8
DEFAULT
 62
     4
 10
5284.618056955316
 20
-5.400515617063099
 30
-0.0000000000000568
 11
5283.904701871274
 21
-4.38788285179988
 31
-0.0000000000000568
  0
LINE
  5
4E9
  8
DEFAULT
 62
     4
 10
5283.904701871274
 20
-4.38788285179988
 30
-0.0000000000000568
 11
5283.171152987381
 21
-3.389765424224164
 31
-0.0000000000000568
  0
LINE
  5
4EA
  8
DEFAULT
 62
     4
 10
5283.171152987381
 20
-3.389765424224164
 30
-0.0000000000000568
 11
5282.41775973169
 21
-2.406527753099983
 31
-0.0000000000000568
  0
LINE
  5
4EB
  8
DEFAULT
 62
     4
 10
5282.41775973169
 20
-2.406527753099983
 30
-0.0000000000000568
 11
5281.644871532251
 21
-1.438534257191369
 31
-0.0000000000000568
  0
LINE
  5
4EC
  8
DEFAULT
 62
     4
 10
5281.644871532251
 20
-1.438534257191369
 30
-0.0000000000000568
 11
5280.852837817114
 21
-0.4861493552623533
 31
-0.0000000000000568
  0
LINE
  5
4ED
  8
DEFAULT
 62
     4
 10
5280.852837817114
 20
-0.4861493552623533
 30
-0.0000000000000568
 11
5280.028188067363
 21
0.4659082477194206
 31
-0.0000000000000568
  0
LINE
  5
4EE
  8
DEFAULT
 62
     4
 10
5280.028188067363
 20
0.4659082477194206
 30
-0.0000000000000568
 11
5279.184478488713
 21
1.401105433545156
 31
-0.0000000000000568
  0
LINE
  5
4EF
  8
DEFAULT
 62
     4
 10
5279.184478488713
 20
1.401105433545156
 30
-0.0000000000000568
 11
5278.322084091749
 21
2.319097612419982
 31
-0.0000000000000568
  0
LINE
  5
4F0
  8
DEFAULT
 62
     4
 10
5278.322084091749
 20
2.319097612419982
 30
-0.0000000000000568
 11
5277.441379887051
 21
3.219540194549031
 31
-0.0000000000000568
  0
LINE
  5
4F1
  8
DEFAULT
 62
     4
 10
5277.441379887051
 20
3.219540194549031
 30
-0.0000000000000568
 11
5276.542740885198
 21
4.102088590137433
 31
-0.0000000000000568
  0
LINE
  5
4F2
  8
DEFAULT
 62
     4
 10
5276.542740885198
 20
4.102088590137433
 30
-0.0000000000000568
 11
5275.626542096773
 21
4.966398209390318
 31
-0.0000000000000568
  0
LINE
  5
4F3
  8
DEFAULT
 62
     4
 10
5275.626542096773
 20
4.966398209390318
 30
-0.0000000000000568
 11
5274.693158532356
 21
5.812124462512815
 31
-0.0000000000000568
  0
LINE
  5
4F4
  8
DEFAULT
 62
     4
 10
5274.693158532356
 20
5.812124462512815
 30
-0.0000000000000568
 11
5273.74296520253
 21
6.638922759710057
 31
-0.0000000000000568
  0
LINE
  5
4F5
  8
DEFAULT
 62
     4
 10
5273.74296520253
 20
6.638922759710057
 30
-0.0000000000000568
 11
5272.762472689776
 21
7.457803259443835
 31
-0.0000000000000568
  0
LINE
  5
4F6
  8
DEFAULT
 62
     4
 10
5272.762472689776
 20
7.457803259443835
 30
-0.0000000000000568
 11
5271.765497450638
 21
8.256536478776706
 31
-0.0000000000000568
  0
LINE
  5
4F7
  8
DEFAULT
 62
     4
 10
5271.765497450638
 20
8.256536478776706
 30
-0.0000000000000568
 11
5270.752462500237
 21
9.034799995019512
 31
-0.0000000000000568
  0
LINE
  5
4F8
  8
DEFAULT
 62
     4
 10
5270.752462500237
 20
9.034799995019512
 30
-0.0000000000000568
 11
5269.723790853692
 21
9.79227138548309
 31
-0.0000000000000568
  0
LINE
  5
4F9
  8
DEFAULT
 62
     4
 10
5269.723790853692
 20
9.79227138548309
 30
-0.0000000000000568
 11
5268.668407453115
 21
10.53656875969522
 31
-0.0000000000000568
  0
LINE
  5
4FA
  8
DEFAULT
 62
     4
 10
5268.668407453115
 20
10.53656875969522
 30
-0.0000000000000568
 11
5267.597926966124
 21
11.25897974014151
 31
-0.0000000000000568
  0
LINE
  5
4FB
  8
DEFAULT
 62
     4
 10
5267.597926966124
 20
11.25897974014151
 30
-0.0000000000000568
 11
5266.512800618243
 21
11.95919690433922
 31
-0.0000000000000568
  0
LINE
  5
4FC
  8
DEFAULT
 62
     4
 10
5266.512800618243
 20
11.95919690433922
 30
-0.0000000000000568
 11
5265.413479634995
 21
12.63691282980561
 31
-0.0000000000000568
  0
LINE
  5
4FD
  8
DEFAULT
 62
     4
 10
5265.413479634995
 20
12.63691282980561
 30
-0.0000000000000568
 11
5264.288475540321
 21
13.29896798566207
 31
-0.0000000000000568
  0
LINE
  5
4FE
  8
DEFAULT
 62
     4
 10
5264.288475540321
 20
13.29896798566207
 30
-0.0000000000000568
 11
5263.162479436633
 21
13.9318032154641
 31
-0.0000000000000568
  0
LINE
  5
4FF
  8
DEFAULT
 62
     4
 10
5263.162479436633
 20
13.9318032154641
 30
-0.0000000000000568
 11
5262.048589608481
 21
14.52958294506881
 31
-0.0000000000000568
  0
LINE
  5
500
  8
DEFAULT
 62
     4
 10
5262.048589608481
 20
14.52958294506881
 30
-0.0000000000000568
 11
5260.959904340411
 21
15.08647160033333
 31
-0.0000000000000568
  0
LINE
  5
501
  8
DEFAULT
 62
     4
 10
5260.959904340411
 20
15.08647160033333
 30
-0.0000000000000568
 11
5259.889326846785
 21
15.60639368377729
 31
-0.0000000000000568
  0
LINE
  5
502
  8
DEFAULT
 62
     4
 10
5259.889326846785
 20
15.60639368377729
 30
-0.0000000000000568
 11
5258.840995335409
 21
16.0880550864498
 31
-0.0000000000000568
  0
LINE
  5
503
  8
DEFAULT
 62
     4
 10
5258.840995335409
 20
16.0880550864498
 30
-0.0000000000000568
 11
5257.797721553717
 21
16.54130198873613
 31
-0.0000000000000568
  0
LINE
  5
504
  8
DEFAULT
 62
     4
 10
5257.797721553717
 20
16.54130198873613
 30
-0.0000000000000568
 11
5256.742317249136
 21
16.97598057102159
 31
-0.0000000000000568
  0
LINE
  5
505
  8
DEFAULT
 62
     4
 10
5256.742317249136
 20
16.97598057102159
 30
-0.0000000000000568
 11
5254.941055540743
 21
17.66830014761277
 31
-0.0000000000000568
  0
LINE
  5
506
  8
DEFAULT
 62
     4
 10
5254.941055540743
 20
17.66830014761277
 30
-0.0000000000000568
 11
5252.927973796352
 21
18.36737998690862
 31
-0.0000000000000568
  0
LINE
  5
507
  8
DEFAULT
 62
     4
 10
5252.927973796352
 20
18.36737998690862
 30
-0.0000000000000568
 11
5250.569188898873
 21
19.10316606375054
 31
-0.0000000000000568
  0
LINE
  5
508
  8
DEFAULT
 62
     4
 10
5250.569188898873
 20
19.10316606375054
 30
-0.0000000000000568
 11
5247.730817731214
 21
19.90560435297994
 31
-0.0000000000000568
  0
LINE
  5
509
  8
DEFAULT
 62
     4
 10
5245.730817731214
 20
10.64569657359588
 30
-0.0000000000000352
 11
5245.730817731214
 21
19.64569657359588
 31
-0.0000000000000352
  0
LINE
  5
50A
  8
DEFAULT
 62
     4
 10
5245.730817731214
 20
19.64569657359588
 30
-0.0000000000000352
 11
5243.730817731214
 21
19.64569657359565
 31
-0.0000000000000352
  0
LINE
  5
50B
  8
DEFAULT
 62
     4
 10
5243.730817731214
 20
-101.7580040274327
 30
0.0000000000000002
 11
5243.730817731214
 21
19.64569657359565
 31
-0.0000000000000352
  0
LINE
  5
50C
  8
DEFAULT
 62
     4
 10
5244.730817731214
 20
-100.4912217739141
 30
-0.0000000000000568
 11
5244.730817731214
 21
18.64569657359564
 31
-0.0000000000000568
  0
LINE
  5
50D
  8
DEFAULT
 62
     3
 10
5241.730817731214
 20
16.87046028075914
 30
-0.0000000000000568
 11
5241.730817731214
 21
-88.12953971924085
 31
-0.0000000000000568
  0
LINE
  5
50E
  8
DEFAULT
 10
5297.311071107049
 20
-29.16507589611047
 30
0.000000000000004
 11
5297.090074342086
 21
-27.81203812734896
 31
0.000000000000004
  0
LINE
  5
50F
  8
DEFAULT
 10
5297.090074342086
 20
-27.81203812734896
 30
0.000000000000004
 11
5296.836737420315
 21
-26.46469173014221
 31
0.000000000000004
  0
LINE
  5
510
  8
DEFAULT
 10
5296.836737420315
 20
-26.46469173014221
 30
0.000000000000004
 11
5296.551459043144
 21
-25.12374326213576
 31
0.000000000000004
  0
LINE
  5
511
  8
DEFAULT
 10
5296.551459043144
 20
-25.12374326213576
 30
0.000000000000004
 11
5296.234637911984
 21
-23.78989928097515
 31
0.000000000000004
  0
LINE
  5
512
  8
DEFAULT
 10
5296.234637911984
 20
-23.78989928097515
 30
0.000000000000004
 11
5295.885184779669
 21
-22.45840665506191
 31
0.000000000000004
  0
LINE
  5
513
  8
DEFAULT
 10
5295.885184779669
 20
-22.45840665506191
 30
0.000000000000004
 11
5295.504788895048
 21
-21.13541441056707
 31
0.000000000000004
  0
LINE
  5
514
  8
DEFAULT
 10
5295.504788895048
 20
-21.13541441056707
 30
0.000000000000004
 11
5295.093908642569
 21
-19.82154740674916
 31
0.000000000000004
  0
LINE
  5
515
  8
DEFAULT
 10
5295.093908642569
 20
-19.82154740674916
 30
0.000000000000004
 11
5294.653002406674
 21
-18.51743050286671
 31
0.000000000000004
  0
LINE
  5
516
  8
DEFAULT
 10
5294.653002406674
 20
-18.51743050286671
 30
0.000000000000004
 11
5294.179871362687
 21
-17.21663047633061
 31
0.000000000000004
  0
LINE
  5
517
  8
DEFAULT
 10
5294.179871362687
 20
-17.21663047633061
 30
0.000000000000004
 11
5293.677303286091
 21
-15.92691145586003
 31
0.000000000000004
  0
LINE
  5
518
  8
DEFAULT
 10
5293.677303286091
 20
-15.92691145586003
 30
0.000000000000004
 11
5293.145753274041
 21
-14.64886561388809
 31
0.000000000000004
  0
LINE
  5
519
  8
DEFAULT
 10
5293.145753274041
 20
-14.64886561388809
 30
0.000000000000004
 11
5292.585676423691
 21
-13.38308512284788
 31
0.000000000000004
  0
LINE
  5
51A
  8
DEFAULT
 10
5292.585676423691
 20
-13.38308512284788
 30
0.000000000000004
 11
5291.991399277962
 21
-12.11746530978139
 31
0.000000000000004
  0
LINE
  5
51B
  8
DEFAULT
 10
5291.991399277962
 20
-12.11746530978139
 30
0.000000000000004
 11
5291.368939674162
 21
-10.86548386152742
 31
0.000000000000004
  0
LINE
  5
51C
  8
DEFAULT
 10
5291.368939674162
 20
-10.86548386152742
 30
0.000000000000004
 11
5290.718761108865
 21
-9.627658616129914
 31
0.000000000000004
  0
LINE
  5
51D
  8
DEFAULT
 10
5290.718761108865
 20
-9.627658616129914
 30
0.000000000000004
 11
5290.041327078645
 21
-8.404507411632839
 31
0.000000000000004
  0
LINE
  5
51E
  8
DEFAULT
 10
5290.041327078645
 20
-8.404507411632839
 30
0.000000000000004
 11
5289.337101080075
 21
-7.196548086080152
 31
0.000000000000004
  0
LINE
  5
51F
  8
DEFAULT
 10
5289.337101080075
 20
-7.196548086080152
 30
0.000000000000004
 11
5288.60654660973
 21
-6.004298477515812
 31
0.000000000000004
  0
LINE
  5
520
  8
DEFAULT
 10
5288.60654660973
 20
-6.004298477515812
 30
0.000000000000004
 11
5287.850127164183
 21
-4.828276423983779
 31
0.000000000000004
  0
LINE
  5
521
  8
DEFAULT
 10
5287.850127164183
 20
-4.828276423983779
 30
0.000000000000004
 11
5287.068306240008
 21
-3.668999763528008
 31
0.000000000000004
  0
LINE
  5
522
  8
DEFAULT
 10
5287.068306240008
 20
-3.668999763528008
 30
0.000000000000004
 11
5286.24849031609
 21
-2.508919651094056
 31
0.000000000000004
  0
LINE
  5
523
  8
DEFAULT
 10
5286.24849031609
 20
-2.508919651094056
 30
0.000000000000004
 11
5285.403411574729
 21
-1.367135781849075
 31
0.000000000000004
  0
LINE
  5
524
  8
DEFAULT
 10
5285.403411574729
 20
-1.367135781849075
 30
0.000000000000004
 11
5284.533546308428
 21
-0.2441265898715521
 31
0.000000000000004
  0
LINE
  5
525
  8
DEFAULT
 10
5284.533546308428
 20
-0.2441265898715521
 30
0.000000000000004
 11
5283.639370809691
 21
0.8596294907600237
 31
0.000000000000004
  0
LINE
  5
526
  8
DEFAULT
 10
5283.639370809691
 20
0.8596294907600237
 30
0.000000000000004
 11
5282.721361371019
 21
1.943654025967164
 31
0.000000000000004
  0
LINE
  5
527
  8
DEFAULT
 10
5282.721361371019
 20
1.943654025967164
 30
0.000000000000004
 11
5281.779994284914
 21
3.007468581671381
 31
0.000000000000004
  0
LINE
  5
528
  8
DEFAULT
 10
5281.779994284914
 20
3.007468581671381
 30
0.000000000000004
 11
5280.815745843882
 21
4.050594723794184
 31
0.000000000000004
  0
LINE
  5
529
  8
DEFAULT
 10
5280.815745843882
 20
4.050594723794184
 30
0.000000000000004
 11
5279.829092340424
 21
5.072554018257087
 31
0.000000000000004
  0
LINE
  5
52A
  8
DEFAULT
 10
5279.829092340424
 20
5.072554018257087
 30
0.000000000000004
 11
5278.801024135337
 21
6.091786010680172
 31
0.000000000000004
  0
LINE
  5
52B
  8
DEFAULT
 10
5278.801024135337
 20
6.091786010680172
 30
0.000000000000004
 11
5277.750718405576
 21
7.088084818586502
 31
0.000000000000004
  0
LINE
  5
52C
  8
DEFAULT
 10
5277.750718405576
 20
7.088084818586502
 30
0.000000000000004
 11
5276.678712833534
 21
8.060998033876686
 31
0.000000000000004
  0
LINE
  5
52D
  8
DEFAULT
 10
5276.678712833534
 20
8.060998033876686
 30
0.000000000000004
 11
5275.585545101608
 21
9.01007324845133
 31
0.000000000000004
  0
LINE
  5
52E
  8
DEFAULT
 10
5275.585545101608
 20
9.01007324845133
 30
0.000000000000004
 11
5274.471752892195
 21
9.934858054211047
 31
0.000000000000004
  0
LINE
  5
52F
  8
DEFAULT
 10
5274.471752892195
 20
9.934858054211047
 30
0.000000000000004
 11
5273.33787388769
 21
10.83490004305644
 31
0.000000000000004
  0
LINE
  5
530
  8
DEFAULT
 10
5273.33787388769
 20
10.83490004305644
 30
0.000000000000004
 11
5272.18444577049
 21
11.70974680688812
 31
0.000000000000004
  0
LINE
  5
531
  8
DEFAULT
 10
5272.18444577049
 20
11.70974680688812
 30
0.000000000000004
 11
5271.012006222994
 21
12.5589459376067
 31
0.000000000000004
  0
LINE
  5
532
  8
DEFAULT
 10
5271.012006222994
 20
12.5589459376067
 30
0.000000000000004
 11
5269.800220158374
 21
13.39615052566355
 31
0.000000000000004
  0
LINE
  5
533
  8
DEFAULT
 10
5269.800220158374
 20
13.39615052566355
 30
0.000000000000004
 11
5268.569949965801
 21
14.20595575269954
 31
0.000000000000004
  0
LINE
  5
534
  8
DEFAULT
 10
5268.569949965801
 20
14.20595575269954
 30
0.000000000000004
 11
5267.321833824604
 21
14.98797859518847
 31
0.000000000000004
  0
LINE
  5
535
  8
DEFAULT
 10
5267.321833824604
 20
14.98797859518847
 30
0.000000000000004
 11
5266.056509914113
 21
15.74183602960414
 31
0.000000000000004
  0
LINE
  5
536
  8
DEFAULT
 10
5266.056509914113
 20
15.74183602960414
 30
0.000000000000004
 11
5264.756500447089
 21
16.47713375512536
 31
0.000000000000004
  0
LINE
  5
537
  8
DEFAULT
 10
5264.756500447089
 20
16.47713375512536
 30
0.000000000000004
 11
5263.440132900652
 21
17.18271980363281
 31
0.000000000000004
  0
LINE
  5
538
  8
DEFAULT
 10
5263.440132900652
 20
17.18271980363281
 30
0.000000000000004
 11
5262.10808747515
 21
17.85823845472304
 31
0.000000000000004
  0
LINE
  5
539
  8
DEFAULT
 10
5262.10808747515
 20
17.85823845472304
 30
0.000000000000004
 11
5260.761044370923
 21
18.50333398799258
 31
0.000000000000004
  0
LINE
  5
53A
  8
DEFAULT
 10
5260.761044370923
 20
18.50333398799258
 30
0.000000000000004
 11
5258.69806228834
 21
19.41992923809133
 31
0.000000000000004
  0
LINE
  5
53B
  8
DEFAULT
 10
5258.69806228834
 20
19.41992923809133
 30
0.000000000000004
 11
5257.739693172043
 21
19.7456343242094
 31
0.0000000000000038
  0
LINE
  5
53C
  8
DEFAULT
 10
5257.739693172043
 20
19.7456343242094
 30
0.0000000000000038
 11
5256.832893810697
 21
20.07829809045498
 31
0.0000000000000033
  0
LINE
  5
53D
  8
DEFAULT
 10
5256.832893810697
 20
20.07829809045498
 30
0.0000000000000033
 11
5255.97627750444
 21
20.42183148029114
 31
0.0000000000000026
  0
LINE
  5
53E
  8
DEFAULT
 10
5255.97627750444
 20
20.42183148029114
 30
0.0000000000000026
 11
5255.566354653266
 21
20.5988964538879
 31
0.0000000000000021
  0
LINE
  5
53F
  8
DEFAULT
 10
5255.566354653266
 20
20.5988964538879
 30
0.0000000000000021
 11
5255.168457553419
 21
20.78014543718097
 31
0.0000000000000015
  0
LINE
  5
540
  8
DEFAULT
 10
5255.168457553419
 20
20.78014543718097
 30
0.0000000000000015
 11
5254.782412867416
 21
20.96606729810321
 31
0.0000000000000009
  0
LINE
  5
541
  8
DEFAULT
 10
5254.782412867416
 20
20.96606729810321
 30
0.0000000000000009
 11
5254.408047257775
 21
21.15715090458753
 31
0.0000000000000003
  0
LINE
  5
542
  8
DEFAULT
 10
5254.408047257775
 20
21.15715090458753
 30
0.0000000000000003
 11
5254.045187387014
 21
21.35388512456679
 31
-0.0000000000000005
  0
LINE
  5
543
  8
DEFAULT
 10
5254.045187387014
 20
21.35388512456679
 30
-0.0000000000000005
 11
5253.693659917652
 21
21.55675882597389
 31
-0.0000000000000012
  0
LINE
  5
544
  8
DEFAULT
 10
5253.693659917652
 20
21.55675882597389
 30
-0.0000000000000012
 11
5253.353291512205
 21
21.76626087674171
 31
-0.0000000000000021
  0
LINE
  5
545
  8
DEFAULT
 10
5253.353291512205
 20
21.76626087674171
 30
-0.0000000000000021
 11
5253.023908833193
 21
21.98288014480313
 31
-0.0000000000000029
  0
LINE
  5
546
  8
DEFAULT
 10
5253.023908833193
 20
21.98288014480313
 30
-0.0000000000000029
 11
5252.705338543132
 21
22.20710549809104
 31
-0.0000000000000038
  0
LINE
  5
547
  8
DEFAULT
 10
5252.705338543132
 20
22.20710549809104
 30
-0.0000000000000038
 11
5252.39740730454
 21
22.43942580453833
 31
-0.0000000000000048
  0
LINE
  5
548
  8
DEFAULT
 10
5252.39740730454
 20
22.43942580453833
 30
-0.0000000000000048
 11
5252.247377161582
 21
22.55877433642576
 31
-0.0000000000000052
  0
LINE
  5
549
  8
DEFAULT
 10
5252.247377161582
 20
22.55877433642576
 30
-0.0000000000000052
 11
5252.099941779937
 21
22.68032993207787
 31
-0.0000000000000057
  0
LINE
  5
54A
  8
DEFAULT
 10
5252.099941779937
 20
22.68032993207787
 30
-0.0000000000000057
 11
5251.955079492417
 21
22.80415369998626
 31
-0.0000000000000062
  0
LINE
  5
54B
  8
DEFAULT
 10
5251.955079492417
 20
22.80415369998626
 30
-0.0000000000000062
 11
5251.812768631838
 21
22.93030674864255
 31
-0.0000000000000068
  0
LINE
  5
54C
  8
DEFAULT
 10
5251.812768631838
 20
22.93030674864255
 30
-0.0000000000000068
 11
5251.672987531015
 21
23.05885018653834
 31
-0.0000000000000073
  0
LINE
  5
54D
  8
DEFAULT
 10
5251.672987531015
 20
23.05885018653834
 30
-0.0000000000000073
 11
5251.535714522763
 21
23.18984512216526
 31
-0.0000000000000078
  0
LINE
  5
54E
  8
DEFAULT
 10
5251.535714522763
 20
23.18984512216526
 30
-0.0000000000000078
 11
5251.400927939896
 21
23.32335266401489
 31
-0.0000000000000083
  0
LINE
  5
54F
  8
DEFAULT
 10
5251.400927939896
 20
23.32335266401489
 30
-0.0000000000000083
 11
5251.268606115229
 21
23.45943392057887
 31
-0.0000000000000089
  0
LINE
  5
550
  8
DEFAULT
 10
5251.268606115229
 20
23.45943392057887
 30
-0.0000000000000089
 11
5251.138727381576
 21
23.59815000034879
 31
-0.0000000000000094
  0
LINE
  5
551
  8
DEFAULT
 10
5251.138727381576
 20
23.59815000034879
 30
-0.0000000000000094
 11
5251.011270071755
 21
23.73956201181628
 31
-0.00000000000001
  0
LINE
  5
552
  8
DEFAULT
 10
5251.011270071755
 20
23.73956201181628
 30
-0.00000000000001
 11
5250.886212518577
 21
23.88373106347293
 31
-0.0000000000000105
  0
LINE
  5
553
  8
DEFAULT
 10
5250.886212518577
 20
23.88373106347293
 30
-0.0000000000000105
 11
5250.763533054857
 21
24.03071826381036
 31
-0.0000000000000111
  0
LINE
  5
554
  8
DEFAULT
 10
5250.763533054857
 20
24.03071826381036
 30
-0.0000000000000111
 11
5250.643210013412
 21
24.18058472132018
 31
-0.0000000000000116
  0
LINE
  5
555
  8
DEFAULT
 10
5250.643210013412
 20
24.18058472132018
 30
-0.0000000000000116
 11
5250.525221727055
 21
24.333391544494
 31
-0.0000000000000122
  0
LINE
  5
556
  8
DEFAULT
 10
5250.525221727055
 20
24.333391544494
 30
-0.0000000000000122
 11
5250.409546528601
 21
24.48919984182344
 31
-0.0000000000000128
  0
LINE
  5
557
  8
DEFAULT
 10
5250.409546528601
 20
24.48919984182344
 30
-0.0000000000000128
 11
5250.296162750865
 21
24.64807072180009
 31
-0.0000000000000133
  0
LINE
  5
558
  8
DEFAULT
 10
5250.296162750865
 20
24.64807072180009
 30
-0.0000000000000133
 11
5250.185048726662
 21
24.81006529291558
 31
-0.0000000000000139
  0
LINE
  5
559
  8
DEFAULT
 10
5250.185048726662
 20
24.81006529291558
 30
-0.0000000000000139
 11
5250.076182788805
 21
24.97524466366151
 31
-0.0000000000000145
  0
LINE
  5
55A
  8
DEFAULT
 10
5250.076182788805
 20
24.97524466366151
 30
-0.0000000000000145
 11
5249.969543270112
 21
25.14366994252949
 31
-0.0000000000000151
  0
LINE
  5
55B
  8
DEFAULT
 10
5249.969543270112
 20
25.14366994252949
 30
-0.0000000000000151
 11
5249.865108503395
 21
25.31540223801114
 31
-0.0000000000000157
  0
LINE
  5
55C
  8
DEFAULT
 10
5249.865108503395
 20
25.31540223801114
 30
-0.0000000000000157
 11
5249.76285682147
 21
25.49050265859806
 31
-0.0000000000000162
  0
LINE
  5
55D
  8
DEFAULT
 10
5249.76285682147
 20
25.49050265859806
 30
-0.0000000000000162
 11
5249.662766557152
 21
25.66903231278187
 31
-0.0000000000000168
  0
LINE
  5
55E
  8
DEFAULT
 10
5249.662766557152
 20
25.66903231278187
 30
-0.0000000000000168
 11
5249.468983612592
 21
26.03662375590658
 31
-0.000000000000018
  0
LINE
  5
55F
  8
DEFAULT
 10
5249.468983612592
 20
26.03662375590658
 30
-0.000000000000018
 11
5249.283586332234
 21
26.41866543531816
 31
-0.0000000000000192
  0
LINE
  5
560
  8
DEFAULT
 10
5249.283586332234
 20
26.41866543531816
 30
-0.0000000000000192
 11
5249.106401378597
 21
26.81564621894949
 31
-0.0000000000000203
  0
LINE
  5
561
  8
DEFAULT
 10
5249.106401378597
 20
26.81564621894949
 30
-0.0000000000000203
 11
5248.937255414198
 21
27.22805497473345
 31
-0.0000000000000215
  0
LINE
  5
562
  8
DEFAULT
 10
5248.937255414198
 20
27.22805497473345
 30
-0.0000000000000215
 11
5248.775975101556
 21
27.65638057060293
 31
-0.0000000000000226
  0
LINE
  5
563
  8
DEFAULT
 10
5248.775975101556
 20
27.65638057060293
 30
-0.0000000000000226
 11
5248.622387103187
 21
28.10111187449082
 31
-0.0000000000000238
  0
LINE
  5
564
  8
DEFAULT
 10
5248.622387103187
 20
28.10111187449082
 30
-0.0000000000000238
 11
5248.476318081609
 21
28.56273775432999
 31
-0.0000000000000249
  0
LINE
  5
565
  8
DEFAULT
 10
5248.476318081609
 20
28.56273775432999
 30
-0.0000000000000249
 11
5248.337594699342
 21
29.04174707805333
 31
-0.000000000000026
  0
LINE
  5
566
  8
DEFAULT
 10
5248.337594699342
 20
29.04174707805333
 30
-0.000000000000026
 11
5248.206043618901
 21
29.53862871359372
 31
-0.0000000000000271
  0
LINE
  5
567
  8
DEFAULT
 10
5248.206043618901
 20
29.53862871359372
 30
-0.0000000000000271
 11
5248.081491502806
 21
30.05387152888406
 31
-0.0000000000000281
  0
LINE
  5
568
  8
DEFAULT
 10
5248.081491502806
 20
30.05387152888406
 30
-0.0000000000000281
 11
5247.963765013576
 21
30.58796439185722
 31
-0.0000000000000291
  0
LINE
  5
569
  8
DEFAULT
 10
5247.963765013576
 20
30.58796439185722
 30
-0.0000000000000291
 11
5247.852690813725
 21
31.14139617044609
 31
-0.0000000000000301
  0
LINE
  5
56A
  8
DEFAULT
 10
5247.852690813725
 20
31.14139617044609
 30
-0.0000000000000301
 11
5247.748095565774
 21
31.71465573258354
 31
-0.0000000000000311
  0
LINE
  5
56B
  8
DEFAULT
 10
5247.748095565774
 20
31.71465573258354
 30
-0.0000000000000311
 11
5247.557648575641
 21
32.92261367923577
 31
-0.0000000000000329
  0
LINE
  5
56C
  8
DEFAULT
 10
5247.557648575641
 20
32.92261367923577
 30
-0.0000000000000329
 11
5247.391037343319
 21
34.21574917527697
 31
-0.0000000000000345
  0
LINE
  5
56D
  8
DEFAULT
 10
5247.391037343319
 20
34.21574917527697
 30
-0.0000000000000345
 11
5247.246875168952
 21
35.59797316417021
 31
-0.0000000000000359
  0
LINE
  5
56E
  8
DEFAULT
 10
5247.246875168952
 20
35.59797316417021
 30
-0.0000000000000359
 11
5247.123775352682
 21
37.07319658937859
 31
-0.0000000000000371
  0
LINE
  5
56F
  8
DEFAULT
 10
5247.123775352682
 20
37.07319658937859
 30
-0.0000000000000371
 11
5246.935215995007
 21
40.31828552259299
 31
-0.0000000000000387
  0
LINE
  5
570
  8
DEFAULT
 10
5246.935215995007
 20
40.31828552259299
 30
-0.0000000000000387
 11
5246.814265671441
 21
43.98230352262476
 31
-0.0000000000000392
  0
LINE
  5
571
  8
DEFAULT
 10
5246.814265671441
 20
43.98230352262476
 30
-0.0000000000000392
 11
5246.730817731214
 21
52.69227691395874
 31
-0.0000000000000357
  0
LINE
  5
572
  8
DEFAULT
 10
5246.730817731214
 20
52.69227691395874
 30
-0.0000000000000357
 11
5246.730817731214
 21
96.97417016251968
 31
-0.0000000000000048
  0
ARC
  5
573
  8
DEFAULT
 10
5233.14495357545
 20
-40.938889457305
 30
0.000000000000004
 40
69.54500970656257
 50
31.11844241958047
 51
67.05281925791934
  0
LINE
  5
574
  8
DEFAULT
 10
5260.259327254947
 20
23.10265264666382
 30
0.000000000000004
 11
5259.946719452111
 21
23.22004177423621
 31
0.000000000000004
  0
LINE
  5
575
  8
DEFAULT
 10
5259.946719452111
 20
23.22004177423621
 30
0.000000000000004
 11
5259.249530904197
 21
23.45517041813355
 31
0.000000000000004
  0
LINE
  5
576
  8
DEFAULT
 10
5259.249530904197
 20
23.45517041813355
 30
0.000000000000004
 11
5258.556876710909
 21
23.7032871065478
 31
0.000000000000004
  0
LINE
  5
577
  8
DEFAULT
 10
5258.556876710909
 20
23.7032871065478
 30
0.000000000000004
 11
5257.953193001693
 21
23.93473068876913
 31
0.000000000000004
  0
LINE
  5
578
  8
DEFAULT
 10
5257.953193001693
 20
23.93473068876913
 30
0.000000000000004
 11
5257.355861301607
 21
24.18202277175234
 31
0.000000000000004
  0
LINE
  5
579
  8
DEFAULT
 10
5257.355861301607
 20
24.18202277175234
 30
0.000000000000004
 11
5256.84397525379
 21
24.41239771964933
 31
0.000000000000004
  0
LINE
  5
57A
  8
DEFAULT
 10
5256.84397525379
 20
24.41239771964933
 30
0.000000000000004
 11
5256.591056824183
 21
24.53405959440937
 31
0.000000000000004
  0
LINE
  5
57B
  8
DEFAULT
 10
5256.591056824183
 20
24.53405959440937
 30
0.000000000000004
 11
5256.340537390599
 21
24.66058978851187
 31
0.000000000000004
  0
LINE
  5
57C
  8
DEFAULT
 10
5256.340537390599
 20
24.66058978851187
 30
0.000000000000004
 11
5256.126586930351
 21
24.77399174342867
 31
0.000000000000004
  0
LINE
  5
57D
  8
DEFAULT
 10
5256.126586930351
 20
24.77399174342867
 30
0.000000000000004
 11
5255.914972723271
 21
24.89168172295201
 31
0.000000000000004
  0
LINE
  5
57E
  8
DEFAULT
 10
5255.914972723271
 20
24.89168172295201
 30
0.000000000000004
 11
5255.706031996649
 21
25.014016335467
 31
0.000000000000004
  0
LINE
  5
57F
  8
DEFAULT
 10
5255.706031996649
 20
25.014016335467
 30
0.000000000000004
 11
5255.500101977779
 21
25.14135218935873
 31
0.000000000000004
  0
LINE
  5
580
  8
DEFAULT
 10
5255.500101977779
 20
25.14135218935873
 30
0.000000000000004
 11
5255.323457198194
 21
25.25662493231452
 31
0.000000000000004
  0
LINE
  5
581
  8
DEFAULT
 10
5255.323457198194
 20
25.25662493231452
 30
0.000000000000004
 11
5255.149697069166
 21
25.37619419593725
 31
0.000000000000004
  0
LINE
  5
582
  8
DEFAULT
 10
5255.149697069166
 20
25.37619419593725
 30
0.000000000000004
 11
5254.979165893377
 21
25.50029106889195
 31
0.000000000000004
  0
LINE
  5
583
  8
DEFAULT
 10
5254.979165893377
 20
25.50029106889195
 30
0.000000000000004
 11
5254.812207973512
 21
25.62914663984362
 31
0.000000000000004
  0
LINE
  5
584
  8
DEFAULT
 10
5254.812207973512
 20
25.62914663984362
 30
0.000000000000004
 11
5254.664215616353
 21
25.75025881480797
 31
0.000000000000004
  0
LINE
  5
585
  8
DEFAULT
 10
5254.664215616353
 20
25.75025881480797
 30
0.000000000000004
 11
5254.519715886239
 21
25.87551981885776
 31
0.000000000000004
  0
LINE
  5
586
  8
DEFAULT
 10
5254.519715886239
 20
25.87551981885776
 30
0.000000000000004
 11
5254.378981147809
 21
26.00497683920548
 31
0.000000000000004
  0
LINE
  5
587
  8
DEFAULT
 10
5254.378981147809
 20
26.00497683920548
 30
0.000000000000004
 11
5254.242283765698
 21
26.13867706306365
 31
0.000000000000004
  0
LINE
  5
588
  8
DEFAULT
 10
5254.242283765698
 20
26.13867706306365
 30
0.000000000000004
 11
5254.112737967617
 21
26.27354923384991
 31
0.000000000000004
  0
LINE
  5
589
  8
DEFAULT
 10
5254.112737967617
 20
26.27354923384991
 30
0.000000000000004
 11
5253.987418653682
 21
26.41236938295605
 31
0.000000000000004
  0
LINE
  5
58A
  8
DEFAULT
 10
5253.987418653682
 20
26.41236938295605
 30
0.000000000000004
 11
5253.866430302237
 21
26.55498197118627
 31
0.000000000000004
  0
LINE
  5
58B
  8
DEFAULT
 10
5253.866430302237
 20
26.55498197118627
 30
0.000000000000004
 11
5253.749877391631
 21
26.70123145934474
 31
0.000000000000004
  0
LINE
  5
58C
  8
DEFAULT
 10
5253.749877391631
 20
26.70123145934474
 30
0.000000000000004
 11
5253.630190611466
 21
26.86150245453463
 31
0.000000000000004
  0
LINE
  5
58D
  8
DEFAULT
 10
5253.630190611466
 20
26.86150245453463
 30
0.000000000000004
 11
5253.515582021328
 21
27.02545442554747
 31
0.000000000000004
  0
LINE
  5
58E
  8
DEFAULT
 10
5253.515582021328
 20
27.02545442554747
 30
0.000000000000004
 11
5253.405935176726
 21
27.19278493002562
 31
0.000000000000004
  0
LINE
  5
58F
  8
DEFAULT
 10
5253.405935176726
 20
27.19278493002562
 30
0.000000000000004
 11
5253.301133633171
 21
27.36319152561143
 31
0.000000000000004
  0
LINE
  5
590
  8
DEFAULT
 10
5253.301133633171
 20
27.36319152561143
 30
0.000000000000004
 11
5253.186899303681
 21
27.56173440117025
 31
0.000000000000004
  0
LINE
  5
591
  8
DEFAULT
 10
5253.186899303681
 20
27.56173440117025
 30
0.000000000000004
 11
5253.078548857212
 21
27.76355481560297
 31
0.000000000000004
  0
LINE
  5
592
  8
DEFAULT
 10
5253.078548857212
 20
27.76355481560297
 30
0.000000000000004
 11
5252.975765075271
 21
27.9682931330755
 31
0.000000000000004
  0
LINE
  5
593
  8
DEFAULT
 10
5252.975765075271
 20
27.9682931330755
 30
0.000000000000004
 11
5252.878230739363
 21
28.17558971775376
 31
0.000000000000004
  0
LINE
  5
594
  8
DEFAULT
 10
5252.878230739363
 20
28.17558971775376
 30
0.000000000000004
 11
5252.769258224956
 21
28.42354328010445
 31
0.000000000000004
  0
LINE
  5
595
  8
DEFAULT
 10
5252.769258224956
 20
28.42354328010445
 30
0.000000000000004
 11
5252.666724480079
 21
28.67422879153164
 31
0.000000000000004
  0
LINE
  5
596
  8
DEFAULT
 10
5252.666724480079
 20
28.67422879153164
 30
0.000000000000004
 11
5252.57017292917
 21
28.92730447389131
 31
0.000000000000004
  0
LINE
  5
597
  8
DEFAULT
 10
5252.57017292917
 20
28.92730447389131
 30
0.000000000000004
 11
5252.479146996663
 21
29.18242854903943
 31
0.000000000000004
  0
LINE
  5
598
  8
DEFAULT
 10
5252.479146996663
 20
29.18242854903943
 30
0.000000000000004
 11
5252.377624406578
 21
29.4876748452036
 31
0.000000000000004
  0
LINE
  5
599
  8
DEFAULT
 10
5252.377624406578
 20
29.4876748452036
 30
0.000000000000004
 11
5252.282726461181
 21
29.79504415071756
 31
0.000000000000004
  0
LINE
  5
59A
  8
DEFAULT
 10
5252.282726461181
 20
29.79504415071756
 30
0.000000000000004
 11
5252.193927348233
 21
30.10425210239647
 31
0.000000000000004
  0
LINE
  5
59B
  8
DEFAULT
 10
5252.193927348233
 20
30.10425210239647
 30
0.000000000000004
 11
5252.110701255497
 21
30.41501433705548
 31
0.000000000000004
  0
LINE
  5
59C
  8
DEFAULT
 10
5252.110701255497
 20
30.41501433705548
 30
0.000000000000004
 11
5252.019210971845
 21
30.78248885553246
 31
0.000000000000004
  0
LINE
  5
59D
  8
DEFAULT
 10
5252.019210971845
 20
30.78248885553246
 30
0.000000000000004
 11
5251.934185169863
 21
31.15151088325231
 31
0.000000000000004
  0
LINE
  5
59E
  8
DEFAULT
 10
5251.934185169863
 20
31.15151088325231
 30
0.000000000000004
 11
5251.781407651224
 21
31.89334818383715
 31
0.000000000000004
  0
LINE
  5
59F
  8
DEFAULT
 10
5251.781407651224
 20
31.89334818383715
 30
0.000000000000004
 11
5251.675251251258
 21
32.47966500217223
 31
0.000000000000004
  0
LINE
  5
5A0
  8
DEFAULT
 10
5251.675251251258
 20
32.47966500217223
 30
0.000000000000004
 11
5251.579804928814
 21
33.06781610308332
 31
0.000000000000004
  0
LINE
  5
5A1
  8
DEFAULT
 10
5251.579804928814
 20
33.06781610308332
 30
0.000000000000004
 11
5251.444185714507
 21
34.02768714552838
 31
0.000000000000004
  0
LINE
  5
5A2
  8
DEFAULT
 10
5251.444185714507
 20
34.02768714552838
 30
0.000000000000004
 11
5251.329215628757
 21
34.99029841027966
 31
0.000000000000004
  0
LINE
  5
5A3
  8
DEFAULT
 10
5251.329215628757
 20
34.99029841027966
 30
0.000000000000004
 11
5251.126434997706
 21
37.18845633530613
 31
0.000000000000004
  0
LINE
  5
5A4
  8
DEFAULT
 10
5251.126434997706
 20
37.18845633530613
 30
0.000000000000004
 11
5250.970531306228
 21
39.67205730062716
 31
0.000000000000004
  0
LINE
  5
5A5
  8
DEFAULT
 10
5250.970531306228
 20
39.67205730062716
 30
0.000000000000004
 11
5250.783494297244
 21
45.54014358051842
 31
0.000000000000004
  0
LINE
  5
5A6
  8
DEFAULT
 10
5250.783494297244
 20
45.54014358051842
 30
0.000000000000004
 11
5250.730817731213
 21
52.69227691395874
 31
0.000000000000004
  0
LINE
  5
5A7
  8
DEFAULT
 10
5250.730817731214
 20
52.69227691395874
 30
0.000000000000004
 11
5250.730817731214
 21
96.9741701625197
 31
0.000000000000004
  0
LINE
  5
5A8
  8
DEFAULT
 10
5246.730817731214
 20
96.97417016251967
 30
0.0
 11
5250.730817731214
 21
96.9741701625197
 31
0.000000000000004
  0
LINE
  5
5A9
  8
DEFAULT
 10
5290.933176124546
 20
-5.969391939700671
 30
0.000000000000004
 11
5289.682145527991
 21
-3.980751624663617
 31
0.000000000000004
  0
LINE
  5
5AA
  8
DEFAULT
 10
5289.682145527991
 20
-3.980751624663617
 30
0.000000000000004
 11
5288.362701277354
 21
-2.036829114486959
 31
0.000000000000004
  0
LINE
  5
5AB
  8
DEFAULT
 10
5288.362701277354
 20
-2.036829114486959
 30
0.000000000000004
 11
5286.976440184884
 21
-0.1399769748587421
 31
0.000000000000004
  0
LINE
  5
5AC
  8
DEFAULT
 10
5286.976440184884
 20
-0.1399769748587421
 30
0.000000000000004
 11
5285.525039925623
 21
1.707509193837996
 31
0.000000000000004
  0
LINE
  5
5AD
  8
DEFAULT
 10
5285.525039925623
 20
1.707509193837996
 30
0.000000000000004
 11
5284.010257007062
 21
3.50339353469699
 31
0.000000000000004
  0
LINE
  5
5AE
  8
DEFAULT
 10
5284.010257007062
 20
3.50339353469699
 30
0.000000000000004
 11
5282.433924643384
 21
5.245502640158056
 31
0.000000000000004
  0
LINE
  5
5AF
  8
DEFAULT
 10
5282.433924643384
 20
5.245502640158056
 30
0.000000000000004
 11
5280.797950536884
 21
6.931728182299235
 31
0.000000000000004
  0
LINE
  5
5B0
  8
DEFAULT
 10
5280.797950536884
 20
6.931728182299235
 30
0.000000000000004
 11
5279.104314569233
 21
8.560029464368498
 31
0.000000000000004
  0
LINE
  5
5B1
  8
DEFAULT
 10
5279.104314569233
 20
8.560029464368498
 30
0.000000000000004
 11
5277.355066405398
 21
10.12843589046712
 31
0.000000000000004
  0
LINE
  5
5B2
  8
DEFAULT
 10
5277.355066405398
 20
10.12843589046712
 30
0.000000000000004
 11
5275.552323013101
 21
11.6350493503959
 31
0.000000000000004
  0
LINE
  5
5B3
  8
DEFAULT
 10
5275.552323013101
 20
11.6350493503959
 30
0.000000000000004
 11
5273.698266100835
 21
13.07804651677819
 31
0.000000000000004
  0
LINE
  5
5B4
  8
DEFAULT
 10
5273.698266100835
 20
13.07804651677819
 30
0.000000000000004
 11
5271.795139477524
 21
14.4556810516793
 31
0.000000000000004
  0
LINE
  5
5B5
  8
DEFAULT
 10
5271.795139477524
 20
14.4556810516793
 30
0.000000000000004
 11
5269.84524633703
 21
15.7662857200523
 31
0.000000000000004
  0
LINE
  5
5B6
  8
DEFAULT
 10
5269.84524633703
 20
15.7662857200523
 30
0.000000000000004
 11
5267.85094647079
 21
17.00827440745218
 31
0.000000000000004
  0
LINE
  5
5B7
  8
DEFAULT
 10
5267.85094647079
 20
17.00827440745218
 30
0.000000000000004
 11
5265.814653411968
 21
18.18014403957651
 31
0.000000000000004
  0
LINE
  5
5B8
  8
DEFAULT
 10
5265.814653411968
 20
18.18014403957651
 30
0.000000000000004
 11
5263.738831514542
 21
19.28047640130975
 31
0.000000000000004
  0
LINE
  5
5B9
  8
DEFAULT
 10
5263.738831514542
 20
19.28047640130975
 30
0.000000000000004
 11
5261.625992970922
 21
20.30793985306951
 31
0.000000000000004
  0
LINE
  5
5BA
  8
DEFAULT
 10
5261.625992970922
 20
20.30793985306951
 30
0.000000000000004
 11
5259.478694771644
 21
21.26129094237778
 31
0.000000000000004
  0
LINE
  5
5BB
  8
DEFAULT
 10
5259.478694771644
 20
21.26129094237778
 30
0.000000000000004
 11
5259.401768851998
 21
21.29390315080106
 31
0.000000000000004
  0
LINE
  5
5BC
  8
DEFAULT
 10
5259.401768851998
 20
21.29390315080106
 30
0.000000000000004
 11
5259.322390870226
 21
21.31998550616376
 31
0.000000000000004
  0
LINE
  5
5BD
  8
DEFAULT
 10
5259.322390870226
 20
21.31998550616376
 30
0.000000000000004
 11
5258.076179631662
 21
21.74949730455483
 31
0.000000000000004
  0
LINE
  5
5BE
  8
DEFAULT
 10
5258.076179631662
 20
21.74949730455483
 30
0.000000000000004
 11
5257.508731548965
 21
21.96138074708057
 31
0.000000000000004
  0
LINE
  5
5BF
  8
DEFAULT
 10
5257.508731548965
 20
21.96138074708057
 30
0.000000000000004
 11
5256.9457621017
 21
22.18490488518153
 31
0.000000000000004
  0
LINE
  5
5C0
  8
DEFAULT
 10
5256.9457621017
 20
22.18490488518153
 30
0.000000000000004
 11
5256.580219818456
 21
22.33852020156666
 31
0.000000000000004
  0
LINE
  5
5C1
  8
DEFAULT
 10
5256.580219818456
 20
22.33852020156666
 30
0.000000000000004
 11
5256.217555666457
 21
22.49877488353496
 31
0.000000000000004
  0
LINE
  5
5C2
  8
DEFAULT
 10
5256.217555666457
 20
22.49877488353496
 30
0.000000000000004
 11
5255.85830878876
 21
22.66645116037387
 31
0.000000000000004
  0
LINE
  5
5C3
  8
DEFAULT
 10
5255.85830878876
 20
22.66645116037387
 30
0.000000000000004
 11
5255.503018328423
 21
22.84233126137083
 31
0.000000000000004
  0
LINE
  5
5C4
  8
DEFAULT
 10
5255.503018328423
 20
22.84233126137083
 30
0.000000000000004
 11
5255.068909501933
 21
23.07301953054635
 31
0.000000000000004
  0
LINE
  5
5C5
  8
DEFAULT
 10
5255.068909501933
 20
23.07301953054635
 30
0.000000000000004
 11
5254.854995332912
 21
23.19409478908637
 31
0.000000000000004
  0
LINE
  5
5C6
  8
DEFAULT
 10
5254.854995332912
 20
23.19409478908637
 30
0.000000000000004
 11
5254.643467154398
 21
23.31928434938013
 31
0.000000000000004
  0
LINE
  5
5C7
  8
DEFAULT
 10
5254.643467154398
 20
23.31928434938013
 30
0.000000000000004
 11
5254.449434832898
 21
23.4393724084633
 31
0.000000000000004
  0
LINE
  5
5C8
  8
DEFAULT
 10
5254.449434832898
 20
23.4393724084633
 30
0.000000000000004
 11
5254.257870682519
 21
23.56334929391726
 31
0.000000000000004
  0
LINE
  5
5C9
  8
DEFAULT
 10
5254.257870682519
 20
23.56334929391726
 30
0.000000000000004
 11
5254.068997593678
 21
23.69136842191621
 31
0.000000000000004
  0
LINE
  5
5CA
  8
DEFAULT
 10
5254.068997593678
 20
23.69136842191621
 30
0.000000000000004
 11
5253.883038456795
 21
23.82358320863437
 31
0.000000000000004
  0
LINE
  5
5CB
  8
DEFAULT
 10
5253.883038456795
 20
23.82358320863437
 30
0.000000000000004
 11
5253.710111279568
 21
23.95257022187989
 31
0.000000000000004
  0
LINE
  5
5CC
  8
DEFAULT
 10
5253.710111279568
 20
23.95257022187989
 30
0.000000000000004
 11
5253.540202262515
 21
24.08551011975523
 31
0.000000000000004
  0
LINE
  5
5CD
  8
DEFAULT
 10
5253.540202262515
 20
24.08551011975523
 30
0.000000000000004
 11
5253.373525698964
 21
24.22246836589594
 31
0.000000000000004
  0
LINE
  5
5CE
  8
DEFAULT
 10
5253.373525698964
 20
24.22246836589594
 30
0.000000000000004
 11
5253.210295882243
 21
24.36351042393758
 31
0.000000000000004
  0
LINE
  5
5CF
  8
DEFAULT
 10
5253.210295882243
 20
24.36351042393758
 30
0.000000000000004
 11
5253.055032369935
 21
24.50465792920858
 31
0.000000000000004
  0
LINE
  5
5D0
  8
DEFAULT
 10
5253.055032369935
 20
24.50465792920858
 30
0.000000000000004
 11
5252.903383760944
 21
24.64968452666001
 31
0.000000000000004
  0
LINE
  5
5D1
  8
DEFAULT
 10
5252.903383760944
 20
24.64968452666001
 30
0.000000000000004
 11
5252.755501405731
 21
24.7985438570968
 31
0.000000000000004
  0
LINE
  5
5D2
  8
DEFAULT
 10
5252.755501405731
 20
24.7985438570968
 30
0.000000000000004
 11
5252.611536654758
 21
24.95118956132391
 31
0.000000000000004
  0
LINE
  5
5D3
  8
DEFAULT
 10
5252.611536654758
 20
24.95118956132391
 30
0.000000000000004
 11
5252.470524333888
 21
25.10882329555028
 31
0.000000000000004
  0
LINE
  5
5D4
  8
DEFAULT
 10
5252.470524333888
 20
25.10882329555028
 30
0.000000000000004
 11
5252.333704707084
 21
25.27011457785349
 31
0.000000000000004
  0
LINE
  5
5D5
  8
DEFAULT
 10
5252.333704707084
 20
25.27011457785349
 30
0.000000000000004
 11
5252.201136263935
 21
25.43492096682494
 31
0.000000000000004
  0
LINE
  5
5D6
  8
DEFAULT
 10
5252.201136263935
 20
25.43492096682494
 30
0.000000000000004
 11
5252.072877494029
 21
25.60310002105606
 31
0.000000000000004
  0
LINE
  5
5D7
  8
DEFAULT
 10
5252.072877494029
 20
25.60310002105606
 30
0.000000000000004
 11
5251.943425370632
 21
25.78238606810075
 31
0.000000000000004
  0
LINE
  5
5D8
  8
DEFAULT
 10
5251.943425370632
 20
25.78238606810075
 30
0.000000000000004
 11
5251.818688195251
 21
25.96498981421272
 31
0.000000000000004
  0
LINE
  5
5D9
  8
DEFAULT
 10
5251.818688195251
 20
25.96498981421272
 30
0.000000000000004
 11
5251.698605595416
 21
26.15069764456081
 31
0.000000000000004
  0
LINE
  5
5DA
  8
DEFAULT
 10
5251.698605595416
 20
26.15069764456081
 30
0.000000000000004
 11
5251.583117198658
 21
26.33929594431385
 31
0.000000000000004
  0
LINE
  5
5DB
  8
DEFAULT
 10
5251.583117198658
 20
26.33929594431385
 30
0.000000000000004
 11
5251.463744817279
 21
26.54548847739201
 31
0.000000000000004
  0
LINE
  5
5DC
  8
DEFAULT
 10
5251.463744817279
 20
26.54548847739201
 30
0.000000000000004
 11
5251.349465107984
 21
26.75454933056796
 31
0.000000000000004
  0
LINE
  5
5DD
  8
DEFAULT
 10
5251.349465107984
 20
26.75454933056796
 30
0.000000000000004
 11
5251.240107785072
 21
26.96623947965865
 31
0.000000000000004
  0
LINE
  5
5DE
  8
DEFAULT
 10
5251.240107785072
 20
26.96623947965865
 30
0.000000000000004
 11
5251.135502562841
 21
27.18031990048101
 31
0.000000000000004
  0
LINE
  5
5DF
  8
DEFAULT
 10
5251.135502562841
 20
27.18031990048101
 30
0.000000000000004
 11
5251.025781990599
 21
27.41815684684475
 31
0.000000000000004
  0
LINE
  5
5E0
  8
DEFAULT
 10
5251.025781990599
 20
27.41815684684475
 30
0.000000000000004
 11
5250.921349785773
 21
27.65836545313537
 31
0.000000000000004
  0
LINE
  5
5E1
  8
DEFAULT
 10
5250.921349785773
 20
27.65836545313537
 30
0.000000000000004
 11
5250.821956896101
 21
27.90071745751131
 31
0.000000000000004
  0
LINE
  5
5E2
  8
DEFAULT
 10
5250.821956896101
 20
27.90071745751131
 30
0.000000000000004
 11
5250.727354269324
 21
28.14498459813101
 31
0.000000000000004
  0
LINE
  5
5E3
  8
DEFAULT
 10
5250.727354269324
 20
28.14498459813101
 30
0.000000000000004
 11
5250.568368595714
 21
28.588830126662
 31
0.000000000000004
  0
LINE
  5
5E4
  8
DEFAULT
 10
5250.568368595714
 20
28.588830126662
 30
0.000000000000004
 11
5250.422765889001
 21
29.03725114824993
 31
0.000000000000004
  0
LINE
  5
5E5
  8
DEFAULT
 10
5250.422765889001
 20
29.03725114824993
 30
0.000000000000004
 11
5250.245279597997
 21
29.64804727220042
 31
0.000000000000004
  0
LINE
  5
5E6
  8
DEFAULT
 10
5250.245279597997
 20
29.64804727220042
 30
0.000000000000004
 11
5250.087060581383
 21
30.26415877628451
 31
0.000000000000004
  0
LINE
  5
5E7
  8
DEFAULT
 10
5250.087060581383
 20
30.26415877628451
 30
0.000000000000004
 11
5249.930421911218
 21
30.95527220076443
 31
0.000000000000004
  0
LINE
  5
5E8
  8
DEFAULT
 10
5249.930421911218
 20
30.95527220076443
 30
0.000000000000004
 11
5249.791927300614
 21
31.65026384609343
 31
0.000000000000004
  0
LINE
  5
5E9
  8
DEFAULT
 10
5249.791927300614
 20
31.65026384609343
 30
0.000000000000004
 11
5249.656409742508
 21
32.42627666604334
 31
0.000000000000004
  0
LINE
  5
5EA
  8
DEFAULT
 10
5249.656409742508
 20
32.42627666604334
 30
0.000000000000004
 11
5249.537687108914
 21
33.20506023070401
 31
0.000000000000004
  0
LINE
  5
5EB
  8
DEFAULT
 10
5249.537687108914
 20
33.20506023070401
 30
0.000000000000004
 11
5249.323165503136
 21
34.93645128898646
 31
0.000000000000004
  0
LINE
  5
5EC
  8
DEFAULT
 10
5249.323165503136
 20
34.93645128898646
 30
0.000000000000004
 11
5249.146498866089
 21
36.8524118884872
 31
0.000000000000004
  0
LINE
  5
5ED
  8
DEFAULT
 10
5249.146498866089
 20
36.8524118884872
 30
0.000000000000004
 11
5249.005631020353
 21
38.96094199223461
 31
0.000000000000004
  0
LINE
  5
5EE
  8
DEFAULT
 10
5249.005631020353
 20
38.96094199223461
 30
0.000000000000004
 11
5248.819462097897
 21
43.78938578853954
 31
0.000000000000004
  0
LINE
  5
5EF
  8
DEFAULT
 10
5248.819462097897
 20
43.78938578853954
 30
0.000000000000004
 11
5248.730817731214
 21
52.69227691395874
 31
0.000000000000004
  0
LINE
  5
5F0
  8
DEFAULT
 10
5248.730817731214
 20
52.69227691395874
 30
0.000000000000004
 11
5248.730817731214
 21
94.9741701625197
 31
0.000000000000004
  0
LINE
  5
5F1
  8
DEFAULT
 10
5298.009477321437
 20
-12.95460567672365
 30
0.000000000000004
 11
5306.847266867941
 21
-31.95136994248719
 31
0.000000000000004
  0
LINE
  5
5F2
  8
DEFAULT
 10
5306.847266867941
 20
-31.95136994248719
 30
0.000000000000004
 11
5311.887967550698
 21
-29.75106618462803
 31
0.000000000000004
  0
LINE
  5
5F3
  8
DEFAULT
 10
5311.887967550698
 20
-29.75106618462803
 30
0.000000000000004
 11
5313.488188465506
 21
-33.41703031754196
 31
0.000000000000004
  0
LINE
  5
5F4
  8
DEFAULT
 10
5313.488188465506
 20
-33.41703031754196
 30
0.000000000000004
 11
5299.740822967076
 21
-39.41785874806772
 31
0.000000000000004
  0
LINE
  5
5F5
  8
DEFAULT
 10
5299.740822967076
 20
-39.41785874806772
 30
0.000000000000004
 11
5298.14060205227
 21
-35.75189461515333
 31
0.000000000000004
  0
LINE
  5
5F6
  8
DEFAULT
 10
5298.14060205227
 20
-35.75189461515333
 30
0.000000000000004
 11
5303.181302735027
 21
-33.55159085729406
 31
0.000000000000004
  0
LINE
  5
5F7
  8
DEFAULT
 10
5303.181302735027
 20
-33.55159085729406
 30
0.000000000000004
 11
5295.260004221751
 21
-14.1547713628288
 31
0.000000000000004
  0
ARC
  5
5F8
  8
DEFAULT
 10
-5248.895065390428
 20
-33.42720493789375
 30
-0.000000000000004
 40
50.21089770894009
 50
146.8488453315393
 51
157.4288944767211
210
-2.608878354390349E-29
220
-1.379064742444762E-29
230
-1.0
  0
LINE
  5
5F9
  8
DEFAULT
 10
5292.682490491956
 20
-4.997408227372533
 30
0.000000000000004
 11
5292.705851563716
 21
-5.035255401357677
 31
0.000000000000004
  0
LINE
  5
5FA
  8
DEFAULT
 10
5292.705851563716
 20
-5.035255401357677
 30
0.000000000000004
 11
5292.734650813684
 21
-5.080183494287072
 31
0.000000000000004
  0
LINE
  5
5FB
  8
DEFAULT
 10
5292.734650813684
 20
-5.080183494287072
 30
0.000000000000004
 11
5292.807879181475
 21
-5.190443328465044
 31
0.0000000000000039
  0
LINE
  5
5FC
  8
DEFAULT
 10
5292.807879181475
 20
-5.190443328465044
 30
0.0000000000000039
 11
5293.012062721118
 21
-5.486703830502753
 31
0.0000000000000038
  0
LINE
  5
5FD
  8
DEFAULT
 10
5293.012062721118
 20
-5.486703830502753
 30
0.0000000000000038
 11
5293.612995677791
 21
-6.335198092545539
 31
0.0000000000000034
  0
LINE
  5
5FE
  8
DEFAULT
 10
5293.612995677791
 20
-6.335198092545539
 30
0.0000000000000034
 11
5295.278394389806
 21
-8.680159034422918
 31
0.0000000000000025
  0
LINE
  5
5FF
  8
DEFAULT
 10
5295.278394389806
 20
-8.680159034422918
 30
0.0000000000000025
 11
5296.167585453213
 21
-9.961813934784562
 31
0.0000000000000022
  0
LINE
  5
600
  8
DEFAULT
 10
5296.167585453213
 20
-9.961813934784562
 30
0.0000000000000022
 11
5296.977587860265
 21
-11.17304393511288
 31
0.0000000000000023
  0
LINE
  5
601
  8
DEFAULT
 10
5296.977587860265
 20
-11.17304393511288
 30
0.0000000000000023
 11
5297.325506647043
 21
-11.71868525722189
 31
0.0000000000000025
  0
LINE
  5
602
  8
DEFAULT
 10
5297.325506647043
 20
-11.71868525722189
 30
0.0000000000000025
 11
5297.620764264995
 21
-12.2064431456714
 31
0.0000000000000028
  0
LINE
  5
603
  8
DEFAULT
 10
5297.620764264995
 20
-12.2064431456714
 30
0.0000000000000028
 11
5297.745221801835
 21
-12.424420259706
 31
0.0000000000000031
  0
LINE
  5
604
  8
DEFAULT
 10
5297.745221801835
 20
-12.424420259706
 30
0.0000000000000031
 11
5297.852406045875
 21
-12.62289186424433
 31
0.0000000000000033
  0
LINE
  5
605
  8
DEFAULT
 10
5297.852406045875
 20
-12.62289186424433
 30
0.0000000000000033
 11
5297.899092766367
 21
-12.71428865763142
 31
0.0000000000000035
  0
LINE
  5
606
  8
DEFAULT
 10
5297.899092766367
 20
-12.71428865763142
 30
0.0000000000000035
 11
5297.940947663586
 21
-12.80017974225926
 31
0.0000000000000036
  0
LINE
  5
607
  8
DEFAULT
 10
5297.940947663586
 20
-12.80017974225926
 30
0.0000000000000036
 11
5297.977799570841
 21
-12.88035534099946
 31
0.0000000000000038
  0
LINE
  5
608
  8
DEFAULT
 10
5297.977799570841
 20
-12.88035534099946
 30
0.0000000000000038
 11
5298.009477321437
 21
-12.95460567672365
 31
0.000000000000004
  0
POINT
  5
609
  8
DEFAULT
 10
5245.730817731214
 20
10.64569657359588
 30
-0.0000000000000352
  0
POINT
  5
60A
  8
DEFAULT
 10
5245.730817731214
 20
9.645696573595648
 30
-0.0000000000000352
  0
POINT
  5
60B
  8
DEFAULT
 10
5244.730817731214
 20
18.64569657359564
 30
-0.0000000000000568
  0
POINT
  5
60C
  8
DEFAULT
 10
5246.730817731214
 20
0.6456965735961031
 30
-0.0000000000000352
  0
TEXT
  5
60D
  8
DEFAULT
  6
CONTINUOUS
 62
     7
 10
5200.490408982699
 20
-514.946110791398
 30
0.0
 40
4.0
  1
65
  7
TIMES_NEW_ROMAN_REGULAR
  0
LINE
  5
60E
  8
DEFAULT
 62
     5
 10
5171.520772227823
 20
-515.7434946539234
 30
0.0
 11
5236.520772227823
 21
-515.7434946539234
 31
0.0
  0
LINE
  5
60F
  8
DEFAULT
 62
     5
 10
5236.520772227823
 20
-515.7434946539234
 30
0.0
 11
5236.520772227823
 21
-510.7434946539236
 31
0.0
  0
LINE
  5
610
  8
DEFAULT
 62
     5
 10
5236.520772227823
 20
-510.7434946539236
 30
0.0
 11
5171.520772227823
 21
-510.7434946539236
 31
0.0
  0
LINE
  5
611
  8
DEFAULT
 62
     5
 10
5171.520772227823
 20
-510.7434946539236
 30
0.0
 11
5171.520772227823
 21
-515.7434946539234
 31
0.0
  0
LINE
  5
612
  8
DEFAULT
 62
     7
 10
5146.726061114215
 20
-462.1227585308236
 30
0.0
 11
5266.726061114215
 21
-462.1227585308236
 31
0.0
  0
LINE
  5
613
  8
DEFAULT
 62
     7
 10
5266.726061114215
 20
-462.1227585308236
 30
0.0
 11
5266.726061114215
 21
-457.1227585308236
 31
0.0
  0
LINE
  5
614
  8
DEFAULT
 62
     7
 10
5266.726061114215
 20
-457.1227585308236
 30
0.0
 11
5146.726061114215
 21
-457.1227585308236
 31
0.0
  0
LINE
  5
615
  8
DEFAULT
 62
     7
 10
5146.726061114215
 20
-457.1227585308236
 30
0.0
 11
5146.726061114215
 21
-462.1227585308236
 31
0.0
  0
TEXT
  5
616
  8
DEFAULT
  6
CONTINUOUS
 62
     7
 10
5200.049968542258
 20
-461.4740973016928
 30
0.0
 40
4.0
  1
120
  7
TIMES_NEW_ROMAN_REGULAR
  0
LINE
  5
617
  8
DEFAULT
 10
5173.963408673613
 20
-101.7580040274347
 30
0.000000000000004
 11
5198.963408673613
 21
-101.7580040274347
 31
0.000000000000004
  0
LINE
  5
618
  8
DEFAULT
 10
5198.963408673613
 20
-101.7580040274347
 30
0.000000000000004
 11
5198.963408673611
 21
19.64569657359565
 31
-0.0000000000000352
  0
LINE
  5
619
  8
DEFAULT
 10
5198.963408673611
 20
19.64569657359565
 30
-0.0000000000000352
 11
5173.963408673611
 21
19.64569657359565
 31
-0.0000000000000352
  0
LINE
  5
61A
  8
DEFAULT
 10
5173.963408673611
 20
19.64569657359565
 30
-0.0000000000000352
 11
5173.963408673613
 21
-101.7580040274347
 31
0.000000000000004
  0
LINE
  5
61B
  8
DEFAULT
 10
5178.137192672417
 20
-0.3543034264043463
 30
-0.0000000000000352
 11
5181.137192672417
 21
-0.3543034264043463
 31
-0.0000000000000352
  0
LINE
  5
61C
  8
DEFAULT
 10
5185.713408673611
 20
-0.3543034264043463
 30
-0.0000000000000352
 11
5187.213408673611
 21
-0.3543034264043463
 31
-0.0000000000000352
  0
LINE
  5
61D
  8
DEFAULT
 62
     5
 10
5193.289624674806
 20
-0.3543034264043463
 30
-0.0000000000000352
 11
5193.205017874663
 21
17.97857461196486
 31
-0.0000000000000253
  0
LINE
  5
61E
  8
DEFAULT
 62
     5
 10
5193.205017874663
 20
17.97857461196486
 30
-0.0000000000000253
 11
5193.169159133196
 21
19.02215525681693
 31
-0.0000000000000232
  0
LINE
  5
61F
  8
DEFAULT
 62
     5
 10
5193.169159133196
 20
19.02215525681693
 30
-0.0000000000000232
 11
5193.124377018277
 21
19.88534916511605
 31
-0.000000000000021
  0
LINE
  5
620
  8
DEFAULT
 62
     5
 10
5193.124377018277
 20
19.88534916511605
 30
-0.000000000000021
 11
5193.069680043965
 21
20.59724225655929
 31
-0.0000000000000188
  0
LINE
  5
621
  8
DEFAULT
 62
     5
 10
5193.069680043965
 20
20.59724225655929
 30
-0.0000000000000188
 11
5193.038303645183
 21
20.90554034586528
 31
-0.0000000000000177
  0
LINE
  5
622
  8
DEFAULT
 62
     5
 10
5193.038303645183
 20
20.90554034586528
 30
-0.0000000000000177
 11
5193.004076724324
 21
21.18692045084369
 31
-0.0000000000000166
  0
LINE
  5
623
  8
DEFAULT
 62
     5
 10
5193.004076724324
 20
21.18692045084369
 30
-0.0000000000000166
 11
5192.966875345648
 21
21.44501831145666
 31
-0.0000000000000156
  0
LINE
  5
624
  8
DEFAULT
 62
     5
 10
5192.966875345648
 20
21.44501831145666
 30
-0.0000000000000156
 11
5192.926575573411
 21
21.68346966766632
 31
-0.0000000000000145
  0
LINE
  5
625
  8
DEFAULT
 62
     5
 10
5192.926575573411
 20
21.68346966766632
 30
-0.0000000000000145
 11
5192.883053471873
 21
21.9059102594348
 31
-0.0000000000000135
  0
LINE
  5
626
  8
DEFAULT
 62
     5
 10
5192.883053471873
 20
21.9059102594348
 30
-0.0000000000000135
 11
5192.83618510529
 21
22.11597582672422
 31
-0.0000000000000125
  0
LINE
  5
627
  8
DEFAULT
 62
     5
 10
5192.83618510529
 20
22.11597582672422
 30
-0.0000000000000125
 11
5192.785846537919
 21
22.31730210949673
 31
-0.0000000000000115
  0
LINE
  5
628
  8
DEFAULT
 62
     5
 10
5192.785846537919
 20
22.31730210949673
 30
-0.0000000000000115
 11
5192.731913834021
 21
22.51352484771445
 31
-0.0000000000000105
  0
LINE
  5
629
  8
DEFAULT
 62
     5
 10
5192.731913834021
 20
22.51352484771445
 30
-0.0000000000000105
 11
5192.612770273663
 21
22.90520265033408
 31
-0.0000000000000088
  0
LINE
  5
62A
  8
DEFAULT
 62
     5
 10
5192.612770273663
 20
22.90520265033408
 30
-0.0000000000000088
 11
5192.477418362891
 21
23.3142450625582
 31
-0.0000000000000072
  0
LINE
  5
62B
  8
DEFAULT
 62
     5
 10
5192.477418362891
 20
23.3142450625582
 30
-0.0000000000000072
 11
5192.323143738819
 21
23.74048754547422
 31
-0.0000000000000059
  0
LINE
  5
62C
  8
DEFAULT
 62
     5
 10
5192.323143738819
 20
23.74048754547422
 30
-0.0000000000000059
 11
5192.237954491087
 21
23.95817924136839
 31
-0.0000000000000053
  0
LINE
  5
62D
  8
DEFAULT
 62
     5
 10
5192.237954491087
 20
23.95817924136839
 30
-0.0000000000000053
 11
5192.146887463179
 21
24.17791546844757
 31
-0.0000000000000047
  0
LINE
  5
62E
  8
DEFAULT
 62
     5
 10
5192.146887463179
 20
24.17791546844757
 30
-0.0000000000000047
 11
5192.049560287811
 21
24.39894439788245
 31
-0.0000000000000042
  0
LINE
  5
62F
  8
DEFAULT
 62
     5
 10
5192.049560287811
 20
24.39894439788245
 30
-0.0000000000000042
 11
5191.945590597697
 21
24.62051420084369
 31
-0.0000000000000037
  0
LINE
  5
630
  8
DEFAULT
 62
     5
 10
5191.945590597697
 20
24.62051420084369
 30
-0.0000000000000037
 11
5191.834596025556
 21
24.841873048502
 31
-0.0000000000000033
  0
LINE
  5
631
  8
DEFAULT
 62
     5
 10
5191.834596025556
 20
24.841873048502
 30
-0.0000000000000033
 11
5191.716194204104
 21
25.06226911202804
 31
-0.0000000000000029
  0
LINE
  5
632
  8
DEFAULT
 62
     5
 10
5191.716194204104
 20
25.06226911202804
 30
-0.0000000000000029
 11
5191.590002766055
 21
25.2809505625925
 31
-0.0000000000000025
  0
LINE
  5
633
  8
DEFAULT
 62
     5
 10
5191.590002766055
 20
25.2809505625925
 30
-0.0000000000000025
 11
5191.455639344127
 21
25.49716557136605
 31
-0.0000000000000021
  0
LINE
  5
634
  8
DEFAULT
 62
     5
 10
5191.455639344127
 20
25.49716557136605
 30
-0.0000000000000021
 11
5191.385273649432
 21
25.60411321357208
 31
-0.000000000000002
  0
LINE
  5
635
  8
DEFAULT
 62
     5
 10
5191.385273649432
 20
25.60411321357208
 30
-0.000000000000002
 11
5191.312721571036
 21
25.71016230951939
 31
-0.0000000000000018
  0
LINE
  5
636
  8
DEFAULT
 62
     5
 10
5191.312721571036
 20
25.71016230951939
 30
-0.0000000000000018
 11
5191.237935313027
 21
25.81521888060431
 31
-0.0000000000000017
  0
LINE
  5
637
  8
DEFAULT
 62
     5
 10
5191.237935313027
 20
25.81521888060431
 30
-0.0000000000000017
 11
5191.160867079496
 21
25.91918894822318
 31
-0.0000000000000016
  0
LINE
  5
638
  8
DEFAULT
 62
     5
 10
5191.160867079496
 20
25.91918894822318
 30
-0.0000000000000016
 11
5191.081469074533
 21
26.02197853377233
 31
-0.0000000000000014
  0
LINE
  5
639
  8
DEFAULT
 62
     5
 10
5191.081469074533
 20
26.02197853377233
 30
-0.0000000000000014
 11
5190.999693502226
 21
26.12349365864811
 31
-0.0000000000000013
  0
LINE
  5
63A
  8
DEFAULT
 62
     5
 10
5190.999693502226
 20
26.12349365864811
 30
-0.0000000000000013
 11
5190.915492566665
 21
26.22364034424684
 31
-0.0000000000000012
  0
LINE
  5
63B
  8
DEFAULT
 62
     5
 10
5190.915492566665
 20
26.22364034424684
 30
-0.0000000000000012
 11
5190.82881847194
 21
26.32232461196486
 31
-0.0000000000000011
  0
LINE
  5
63C
  8
DEFAULT
 62
     5
 10
5190.82881847194
 20
26.32232461196486
 30
-0.0000000000000011
 11
5190.739623422141
 21
26.41945248319851
 31
-0.000000000000001
  0
LINE
  5
63D
  8
DEFAULT
 62
     5
 10
5190.739623422141
 20
26.41945248319851
 30
-0.000000000000001
 11
5190.647859621356
 21
26.51492997934411
 31
-0.0000000000000009
  0
LINE
  5
63E
  8
DEFAULT
 62
     5
 10
5190.647859621356
 20
26.51492997934411
 30
-0.0000000000000009
 11
5190.553479273674
 21
26.60866312179802
 31
-0.0000000000000008
  0
LINE
  5
63F
  8
DEFAULT
 62
     5
 10
5190.553479273674
 20
26.60866312179802
 30
-0.0000000000000008
 11
5190.456434583188
 21
26.70055793195655
 31
-0.0000000000000007
  0
LINE
  5
640
  8
DEFAULT
 62
     5
 10
5190.456434583188
 20
26.70055793195655
 30
-0.0000000000000007
 11
5190.356677753984
 21
26.79052043121604
 31
-0.0000000000000007
  0
LINE
  5
641
  8
DEFAULT
 62
     5
 10
5190.356677753984
 20
26.79052043121604
 30
-0.0000000000000007
 11
5190.254160990152
 21
26.87845664097284
 31
-0.0000000000000006
  0
LINE
  5
642
  8
DEFAULT
 62
     5
 10
5190.254160990152
 20
26.87845664097284
 30
-0.0000000000000006
 11
5190.148836495782
 21
26.96427258262327
 31
-0.0000000000000005
  0
LINE
  5
643
  8
DEFAULT
 62
     5
 10
5190.148836495782
 20
26.96427258262327
 30
-0.0000000000000005
 11
5190.040656474966
 21
27.04787427756367
 31
-0.0000000000000005
  0
LINE
  5
644
  8
DEFAULT
 62
     5
 10
5190.040656474966
 20
27.04787427756367
 30
-0.0000000000000005
 11
5189.92957313179
 21
27.12916774719038
 31
-0.0000000000000004
  0
LINE
  5
645
  8
DEFAULT
 62
     5
 10
5189.92957313179
 20
27.12916774719038
 30
-0.0000000000000004
 11
5189.815538670345
 21
27.20805901289972
 31
-0.0000000000000004
  0
LINE
  5
646
  8
DEFAULT
 62
     5
 10
5189.815538670345
 20
27.20805901289972
 30
-0.0000000000000004
 11
5189.69850529472
 21
27.28445409608805
 31
-0.0000000000000003
  0
LINE
  5
647
  8
DEFAULT
 62
     5
 10
5189.69850529472
 20
27.28445409608805
 30
-0.0000000000000003
 11
5189.578425209004
 21
27.35825901815168
 31
-0.0000000000000003
  0
LINE
  5
648
  8
DEFAULT
 62
     5
 10
5189.578425209004
 20
27.35825901815168
 30
-0.0000000000000003
 11
5189.455250617289
 21
27.42937980048696
 31
-0.0000000000000002
  0
LINE
  5
649
  8
DEFAULT
 62
     5
 10
5189.455250617289
 20
27.42937980048696
 30
-0.0000000000000002
 11
5189.328933723662
 21
27.49772246449022
 31
-0.0000000000000002
  0
LINE
  5
64A
  8
DEFAULT
 62
     5
 10
5189.328933723662
 20
27.49772246449022
 30
-0.0000000000000002
 11
5189.199426732213
 21
27.5631930315578
 31
-0.0000000000000002
  0
LINE
  5
64B
  8
DEFAULT
 62
     5
 10
5189.199426732213
 20
27.5631930315578
 30
-0.0000000000000002
 11
5189.066681847033
 21
27.62569752308603
 31
-0.0000000000000001
  0
LINE
  5
64C
  8
DEFAULT
 62
     5
 10
5189.066681847033
 20
27.62569752308603
 30
-0.0000000000000001
 11
5188.93065127221
 21
27.68514196047124
 31
-0.0000000000000001
  0
LINE
  5
64D
  8
DEFAULT
 62
     5
 10
5188.93065127221
 20
27.68514196047124
 30
-0.0000000000000001
 11
5188.791287211833
 21
27.74143236510978
 31
-0.0000000000000001
  0
LINE
  5
64E
  8
DEFAULT
 62
     5
 10
5188.791287211833
 20
27.74143236510978
 30
-0.0000000000000001
 11
5188.648541869993
 21
27.79447475839797
 31
-0.0000000000000001
  0
LINE
  5
64F
  8
DEFAULT
 62
     5
 10
5188.648541869993
 20
27.79447475839797
 30
-0.0000000000000001
 11
5188.502367450778
 21
27.84417516173215
 31
-0.0000000000000001
  0
LINE
  5
650
  8
DEFAULT
 62
     5
 10
5188.502367450778
 20
27.84417516173215
 30
-0.0000000000000001
 11
5188.352716158279
 21
27.89043959650866
 31
0.0
  0
LINE
  5
651
  8
DEFAULT
 62
     5
 10
5188.352716158279
 20
27.89043959650866
 30
0.0
 11
5188.199540196585
 21
27.93317408412383
 31
0.0
  0
LINE
  5
652
  8
DEFAULT
 62
     5
 10
5188.199540196585
 20
27.93317408412383
 30
0.0
 11
5188.042791769787
 21
27.972284645974
 31
0.0
  0
LINE
  5
653
  8
DEFAULT
 62
     5
 10
5188.042791769787
 20
27.972284645974
 30
0.0
 11
5187.882423081972
 21
28.00767730345551
 31
0.0
  0
LINE
  5
654
  8
DEFAULT
 62
     5
 10
5187.882423081972
 20
28.00767730345551
 30
0.0
 11
5187.718386337228
 21
28.03925807796467
 31
0.0
  0
LINE
  5
655
  8
DEFAULT
 62
     5
 10
5187.718386337228
 20
28.03925807796467
 30
0.0
 11
5187.55063373965
 21
28.06693299089784
 31
0.0
  0
LINE
  5
656
  8
DEFAULT
 62
     5
 10
5187.55063373965
 20
28.06693299089784
 30
0.0
 11
5187.379117493324
 21
28.09060806365135
 31
0.0
  0
LINE
  5
657
  8
DEFAULT
 62
     5
 10
5187.379117493324
 20
28.09060806365135
 30
0.0
 11
5187.203789802339
 21
28.11018931762152
 31
0.0
  0
LINE
  5
658
  8
DEFAULT
 62
     5
 10
5187.203789802339
 20
28.11018931762152
 30
0.0
 11
5187.024602870786
 21
28.12558277420471
 31
0.0
  0
LINE
  5
659
  8
DEFAULT
 62
     5
 10
5187.024602870786
 20
28.12558277420471
 30
0.0
 11
5186.841508902754
 21
28.13669445479723
 31
0.0
  0
LINE
  5
65A
  8
DEFAULT
 62
     5
 10
5186.841508902754
 20
28.13669445479723
 30
0.0
 11
5186.654460102332
 21
28.14343038079543
 31
0.0
  0
LINE
  5
65B
  8
DEFAULT
 62
     5
 10
5186.654460102332
 20
28.14343038079543
 30
0.0
 11
5186.463408673611
 21
28.14569657359565
 31
0.0
  0
LINE
  5
65C
  8
DEFAULT
 62
     5
 10
5186.463408673611
 20
28.14569657359565
 30
0.0
 11
5186.27235724489
 21
28.14343038079543
 31
0.0
  0
LINE
  5
65D
  8
DEFAULT
 62
     5
 10
5186.27235724489
 20
28.14343038079543
 30
0.0
 11
5186.085308444469
 21
28.13669445479723
 31
0.0
  0
LINE
  5
65E
  8
DEFAULT
 62
     5
 10
5186.085308444469
 20
28.13669445479723
 30
0.0
 11
5185.902214476437
 21
28.12558277420471
 31
0.0
  0
LINE
  5
65F
  8
DEFAULT
 62
     5
 10
5185.902214476437
 20
28.12558277420471
 30
0.0
 11
5185.723027544884
 21
28.11018931762152
 31
0.0
  0
LINE
  5
660
  8
DEFAULT
 62
     5
 10
5185.723027544884
 20
28.11018931762152
 30
0.0
 11
5185.547699853899
 21
28.09060806365135
 31
0.0
  0
LINE
  5
661
  8
DEFAULT
 62
     5
 10
5185.547699853899
 20
28.09060806365135
 30
0.0
 11
5185.376183607573
 21
28.06693299089784
 31
0.0
  0
LINE
  5
662
  8
DEFAULT
 62
     5
 10
5185.376183607573
 20
28.06693299089784
 30
0.0
 11
5185.208431009994
 21
28.03925807796467
 31
0.0
  0
LINE
  5
663
  8
DEFAULT
 62
     5
 10
5185.208431009994
 20
28.03925807796467
 30
0.0
 11
5185.044394265251
 21
28.00767730345551
 31
0.0
  0
LINE
  5
664
  8
DEFAULT
 62
     5
 10
5185.044394265251
 20
28.00767730345551
 30
0.0
 11
5184.884025577436
 21
27.972284645974
 31
0.0
  0
LINE
  5
665
  8
DEFAULT
 62
     5
 10
5184.884025577436
 20
27.972284645974
 30
0.0
 11
5184.727277150638
 21
27.93317408412383
 31
0.0
  0
LINE
  5
666
  8
DEFAULT
 62
     5
 10
5184.727277150638
 20
27.93317408412383
 30
0.0
 11
5184.574101188944
 21
27.89043959650866
 31
0.0
  0
LINE
  5
667
  8
DEFAULT
 62
     5
 10
5184.574101188944
 20
27.89043959650866
 30
0.0
 11
5184.424449896444
 21
27.84417516173215
 31
-0.0000000000000001
  0
LINE
  5
668
  8
DEFAULT
 62
     5
 10
5184.424449896444
 20
27.84417516173215
 30
-0.0000000000000001
 11
5184.27827547723
 21
27.79447475839797
 31
-0.0000000000000001
  0
LINE
  5
669
  8
DEFAULT
 62
     5
 10
5184.27827547723
 20
27.79447475839797
 30
-0.0000000000000001
 11
5184.13553013539
 21
27.74143236510978
 31
-0.0000000000000001
  0
LINE
  5
66A
  8
DEFAULT
 62
     5
 10
5184.13553013539
 20
27.74143236510978
 30
-0.0000000000000001
 11
5183.996166075013
 21
27.68514196047124
 31
-0.0000000000000001
  0
LINE
  5
66B
  8
DEFAULT
 62
     5
 10
5183.996166075013
 20
27.68514196047124
 30
-0.0000000000000001
 11
5183.86013550019
 21
27.62569752308603
 31
-0.0000000000000001
  0
LINE
  5
66C
  8
DEFAULT
 62
     5
 10
5183.86013550019
 20
27.62569752308603
 30
-0.0000000000000001
 11
5183.727390615009
 21
27.5631930315578
 31
-0.0000000000000002
  0
LINE
  5
66D
  8
DEFAULT
 62
     5
 10
5183.727390615009
 20
27.5631930315578
 30
-0.0000000000000002
 11
5183.597883623561
 21
27.49772246449022
 31
-0.0000000000000002
  0
LINE
  5
66E
  8
DEFAULT
 62
     5
 10
5183.597883623561
 20
27.49772246449022
 30
-0.0000000000000002
 11
5183.471566729934
 21
27.42937980048696
 31
-0.0000000000000002
  0
LINE
  5
66F
  8
DEFAULT
 62
     5
 10
5183.471566729934
 20
27.42937980048696
 30
-0.0000000000000002
 11
5183.348392138219
 21
27.35825901815168
 31
-0.0000000000000003
  0
LINE
  5
670
  8
DEFAULT
 62
     5
 10
5183.348392138219
 20
27.35825901815168
 30
-0.0000000000000003
 11
5183.228312052503
 21
27.28445409608805
 31
-0.0000000000000003
  0
LINE
  5
671
  8
DEFAULT
 62
     5
 10
5183.228312052503
 20
27.28445409608805
 30
-0.0000000000000003
 11
5183.111278676878
 21
27.20805901289972
 31
-0.0000000000000004
  0
LINE
  5
672
  8
DEFAULT
 62
     5
 10
5183.111278676878
 20
27.20805901289972
 30
-0.0000000000000004
 11
5182.997244215433
 21
27.12916774719038
 31
-0.0000000000000004
  0
LINE
  5
673
  8
DEFAULT
 62
     5
 10
5182.997244215433
 20
27.12916774719038
 30
-0.0000000000000004
 11
5182.886160872257
 21
27.04787427756367
 31
-0.0000000000000005
  0
LINE
  5
674
  8
DEFAULT
 62
     5
 10
5182.886160872257
 20
27.04787427756367
 30
-0.0000000000000005
 11
5182.777980851441
 21
26.96427258262327
 31
-0.0000000000000005
  0
LINE
  5
675
  8
DEFAULT
 62
     5
 10
5182.777980851441
 20
26.96427258262327
 30
-0.0000000000000005
 11
5182.672656357071
 21
26.87845664097284
 31
-0.0000000000000006
  0
LINE
  5
676
  8
DEFAULT
 62
     5
 10
5182.672656357071
 20
26.87845664097284
 30
-0.0000000000000006
 11
5182.570139593239
 21
26.79052043121604
 31
-0.0000000000000007
  0
LINE
  5
677
  8
DEFAULT
 62
     5
 10
5182.570139593239
 20
26.79052043121604
 30
-0.0000000000000007
 11
5182.470382764035
 21
26.70055793195655
 31
-0.0000000000000007
  0
LINE
  5
678
  8
DEFAULT
 62
     5
 10
5182.470382764035
 20
26.70055793195655
 30
-0.0000000000000007
 11
5182.373338073548
 21
26.60866312179802
 31
-0.0000000000000008
  0
LINE
  5
679
  8
DEFAULT
 62
     5
 10
5182.373338073548
 20
26.60866312179802
 30
-0.0000000000000008
 11
5182.278957725867
 21
26.51492997934411
 31
-0.0000000000000009
  0
LINE
  5
67A
  8
DEFAULT
 62
     5
 10
5182.278957725867
 20
26.51492997934411
 30
-0.0000000000000009
 11
5182.187193925081
 21
26.41945248319851
 31
-0.000000000000001
  0
LINE
  5
67B
  8
DEFAULT
 62
     5
 10
5182.187193925081
 20
26.41945248319851
 30
-0.000000000000001
 11
5182.097998875282
 21
26.32232461196486
 31
-0.0000000000000011
  0
LINE
  5
67C
  8
DEFAULT
 62
     5
 10
5182.097998875282
 20
26.32232461196486
 30
-0.0000000000000011
 11
5182.011324780558
 21
26.22364034424684
 31
-0.0000000000000012
  0
LINE
  5
67D
  8
DEFAULT
 62
     5
 10
5182.011324780558
 20
26.22364034424684
 30
-0.0000000000000012
 11
5181.927123844996
 21
26.12349365864811
 31
-0.0000000000000013
  0
LINE
  5
67E
  8
DEFAULT
 62
     5
 10
5181.927123844996
 20
26.12349365864811
 30
-0.0000000000000013
 11
5181.84534827269
 21
26.02197853377233
 31
-0.0000000000000014
  0
LINE
  5
67F
  8
DEFAULT
 62
     5
 10
5181.84534827269
 20
26.02197853377233
 30
-0.0000000000000014
 11
5181.765950267727
 21
25.91918894822318
 31
-0.0000000000000016
  0
LINE
  5
680
  8
DEFAULT
 62
     5
 10
5181.765950267727
 20
25.91918894822318
 30
-0.0000000000000016
 11
5181.688882034196
 21
25.81521888060431
 31
-0.0000000000000017
  0
LINE
  5
681
  8
DEFAULT
 62
     5
 10
5181.688882034196
 20
25.81521888060431
 30
-0.0000000000000017
 11
5181.614095776187
 21
25.71016230951939
 31
-0.0000000000000018
  0
LINE
  5
682
  8
DEFAULT
 62
     5
 10
5181.614095776187
 20
25.71016230951939
 30
-0.0000000000000018
 11
5181.541543697791
 21
25.60411321357208
 31
-0.000000000000002
  0
LINE
  5
683
  8
DEFAULT
 62
     5
 10
5181.541543697791
 20
25.60411321357208
 30
-0.000000000000002
 11
5181.471178003096
 21
25.49716557136605
 31
-0.0000000000000021
  0
LINE
  5
684
  8
DEFAULT
 62
     5
 10
5181.471178003096
 20
25.49716557136605
 30
-0.0000000000000021
 11
5181.336814581167
 21
25.2809505625925
 31
-0.0000000000000025
  0
LINE
  5
685
  8
DEFAULT
 62
     5
 10
5181.336814581167
 20
25.2809505625925
 30
-0.0000000000000025
 11
5181.210623143119
 21
25.06226911202804
 31
-0.0000000000000029
  0
LINE
  5
686
  8
DEFAULT
 62
     5
 10
5181.210623143119
 20
25.06226911202804
 30
-0.0000000000000029
 11
5181.092221321667
 21
24.841873048502
 31
-0.0000000000000033
  0
LINE
  5
687
  8
DEFAULT
 62
     5
 10
5181.092221321667
 20
24.841873048502
 30
-0.0000000000000033
 11
5180.981226749525
 21
24.62051420084369
 31
-0.0000000000000037
  0
LINE
  5
688
  8
DEFAULT
 62
     5
 10
5180.981226749525
 20
24.62051420084369
 30
-0.0000000000000037
 11
5180.877257059412
 21
24.39894439788245
 31
-0.0000000000000042
  0
LINE
  5
689
  8
DEFAULT
 62
     5
 10
5180.877257059412
 20
24.39894439788245
 30
-0.0000000000000042
 11
5180.779929884044
 21
24.17791546844757
 31
-0.0000000000000047
  0
LINE
  5
68A
  8
DEFAULT
 62
     5
 10
5180.779929884044
 20
24.17791546844757
 30
-0.0000000000000047
 11
5180.688862856136
 21
23.95817924136839
 31
-0.0000000000000053
  0
LINE
  5
68B
  8
DEFAULT
 62
     5
 10
5180.688862856136
 20
23.95817924136839
 30
-0.0000000000000053
 11
5180.603673608403
 21
23.74048754547422
 31
-0.0000000000000059
  0
LINE
  5
68C
  8
DEFAULT
 62
     5
 10
5180.603673608403
 20
23.74048754547422
 30
-0.0000000000000059
 11
5180.449398984332
 21
23.3142450625582
 31
-0.0000000000000072
  0
LINE
  5
68D
  8
DEFAULT
 62
     5
 10
5180.449398984332
 20
23.3142450625582
 30
-0.0000000000000072
 11
5180.31404707356
 21
22.90520265033408
 31
-0.0000000000000088
  0
LINE
  5
68E
  8
DEFAULT
 62
     5
 10
5180.31404707356
 20
22.90520265033408
 30
-0.0000000000000088
 11
5180.194903513202
 21
22.51352484771445
 31
-0.0000000000000105
  0
LINE
  5
68F
  8
DEFAULT
 62
     5
 10
5180.194903513202
 20
22.51352484771445
 30
-0.0000000000000105
 11
5180.140970809303
 21
22.31730210949673
 31
-0.0000000000000115
  0
LINE
  5
690
  8
DEFAULT
 62
     5
 10
5180.140970809303
 20
22.31730210949673
 30
-0.0000000000000115
 11
5180.090632241932
 21
22.11597582672422
 31
-0.0000000000000125
  0
LINE
  5
691
  8
DEFAULT
 62
     5
 10
5180.090632241932
 20
22.11597582672422
 30
-0.0000000000000125
 11
5180.04376387535
 21
21.9059102594348
 31
-0.0000000000000135
  0
LINE
  5
692
  8
DEFAULT
 62
     5
 10
5180.04376387535
 20
21.9059102594348
 30
-0.0000000000000135
 11
5180.000241773811
 21
21.68346966766632
 31
-0.0000000000000145
  0
LINE
  5
693
  8
DEFAULT
 62
     5
 10
5180.000241773811
 20
21.68346966766632
 30
-0.0000000000000145
 11
5179.959942001575
 21
21.44501831145666
 31
-0.0000000000000156
  0
LINE
  5
694
  8
DEFAULT
 62
     5
 10
5179.959942001575
 20
21.44501831145666
 30
-0.0000000000000156
 11
5179.922740622898
 21
21.18692045084369
 31
-0.0000000000000166
  0
LINE
  5
695
  8
DEFAULT
 62
     5
 10
5179.922740622898
 20
21.18692045084369
 30
-0.0000000000000166
 11
5179.88851370204
 21
20.90554034586528
 31
-0.0000000000000177
  0
LINE
  5
696
  8
DEFAULT
 62
     5
 10
5179.88851370204
 20
20.90554034586528
 30
-0.0000000000000177
 11
5179.857137303257
 21
20.59724225655929
 31
-0.0000000000000188
  0
LINE
  5
697
  8
DEFAULT
 62
     5
 10
5179.857137303257
 20
20.59724225655929
 30
-0.0000000000000188
 11
5179.802440328946
 21
19.88534916511605
 31
-0.000000000000021
  0
LINE
  5
698
  8
DEFAULT
 62
     5
 10
5179.802440328946
 20
19.88534916511605
 30
-0.000000000000021
 11
5179.757658214026
 21
19.02215525681693
 31
-0.0000000000000232
  0
LINE
  5
699
  8
DEFAULT
 62
     5
 10
5179.757658214026
 20
19.02215525681693
 30
-0.0000000000000232
 11
5179.72179947256
 21
17.97857461196486
 31
-0.0000000000000253
  0
LINE
  5
69A
  8
DEFAULT
 62
     5
 10
5179.72179947256
 20
17.97857461196486
 30
-0.0000000000000253
 11
5179.637192672417
 21
-0.3543034264043463
 31
-0.0000000000000352
  0
LINE
  5
69B
  8
DEFAULT
 62
     7
 10
5186.463408673611
 20
0.6762723982569243
 30
-0.0000000000000352
 11
5186.461998751269
 21
21.83565285536257
 31
0.0
  0
LINE
  5
69C
  8
DEFAULT
 62
     7
 10
5186.461998751269
 20
21.83565285536257
 30
0.0
 11
5186.515714822734
 21
23.59591499094562
 31
0.0000000000000201
  0
LINE
  5
69D
  8
DEFAULT
 62
     7
 10
5186.515714822734
 20
23.59591499094562
 30
0.0000000000000201
 11
5186.622197917233
 21
25.34363735711975
 31
0.0000000000000312
  0
LINE
  5
69E
  8
DEFAULT
 62
     7
 10
5186.622197917233
 20
25.34363735711975
 30
0.0000000000000312
 11
5186.771337836679
 21
27.07042707680169
 31
0.000000000000035
  0
LINE
  5
69F
  8
DEFAULT
 62
     7
 10
5186.771337836679
 20
27.07042707680169
 30
0.000000000000035
 11
5186.953024382982
 21
28.76789127290815
 31
0.000000000000033
  0
LINE
  5
6A0
  8
DEFAULT
 62
     7
 10
5186.953024382982
 20
28.76789127290815
 30
0.000000000000033
 11
5188.32600459872
 21
39.18447260280815
 31
-0.0000000000000142
  0
LINE
  5
6A1
  8
DEFAULT
 62
     7
 10
5188.32600459872
 20
39.18447260280815
 30
-0.0000000000000142
 11
5188.519478729232
 21
41.06693222059673
 31
-0.0000000000000156
  0
LINE
  5
6A2
  8
DEFAULT
 62
     7
 10
5188.519478729232
 20
41.06693222059673
 30
-0.0000000000000156
 11
5188.663431098734
 21
42.8827134214791
 31
-0.0000000000000144
  0
LINE
  5
6A3
  8
DEFAULT
 62
     7
 10
5188.663431098734
 20
42.8827134214791
 30
-0.0000000000000144
 11
5188.754726252138
 21
44.66253691460494
 31
-0.0000000000000114
  0
LINE
  5
6A4
  8
DEFAULT
 62
     7
 10
5188.754726252138
 20
44.66253691460494
 30
-0.0000000000000114
 11
5188.790228734356
 21
46.43712340912388
 31
-0.0000000000000074
  0
LINE
  5
6A5
  8
DEFAULT
 62
     7
 10
5188.790228734356
 20
46.43712340912388
 30
-0.0000000000000074
 11
5188.766803090301
 21
48.23719361418561
 31
-0.0000000000000033
  0
LINE
  5
6A6
  8
DEFAULT
 62
     7
 10
5188.766803090301
 20
48.23719361418561
 30
-0.0000000000000033
 11
5188.681313864885
 21
50.09346823893976
 31
0.0
  0
LINE
  5
6A7
  8
DEFAULT
 62
     7
 10
5188.681313864885
 20
50.09346823893976
 30
0.0
 11
5188.564398780437
 21
51.64779054161538
 31
0.0000000000000016
  0
LINE
  5
6A8
  8
DEFAULT
 62
     7
 10
5188.564398780437
 20
51.64779054161538
 30
0.0000000000000016
 11
5188.403641265539
 21
53.19696563831756
 31
0.0000000000000024
  0
LINE
  5
6A9
  8
DEFAULT
 62
     7
 10
5188.403641265539
 20
53.19696563831756
 30
0.0000000000000024
 11
5188.306514696765
 21
53.95015742461
 31
0.0000000000000025
  0
LINE
  5
6AA
  8
DEFAULT
 62
     7
 10
5188.306514696765
 20
53.95015742461
 30
0.0000000000000025
 11
5188.198059240493
 21
54.67870373762678
 31
0.0000000000000025
  0
LINE
  5
6AB
  8
DEFAULT
 62
     7
 10
5188.198059240493
 20
54.67870373762678
 30
0.0000000000000025
 11
5188.078152136759
 21
55.37481835344043
 31
0.0000000000000024
  0
LINE
  5
6AC
  8
DEFAULT
 62
     7
 10
5188.078152136759
 20
55.37481835344043
 30
0.0000000000000024
 11
5187.946670625601
 21
56.03071504812354
 31
0.0000000000000021
  0
LINE
  5
6AD
  8
DEFAULT
 62
     7
 10
5187.946670625601
 20
56.03071504812354
 30
0.0000000000000021
 11
5187.87655110475
 21
56.34114848006381
 31
0.000000000000002
  0
LINE
  5
6AE
  8
DEFAULT
 62
     7
 10
5187.87655110475
 20
56.34114848006381
 30
0.000000000000002
 11
5187.803491947057
 21
56.63860759774865
 31
0.0000000000000018
  0
LINE
  5
6AF
  8
DEFAULT
 62
     7
 10
5187.803491947057
 20
56.63860759774865
 30
0.0000000000000018
 11
5187.727477807528
 21
56.92211912318713
 31
0.0000000000000017
  0
LINE
  5
6B0
  8
DEFAULT
 62
     7
 10
5187.727477807528
 20
56.92211912318713
 30
0.0000000000000017
 11
5187.648493341166
 21
57.19070977838832
 31
0.0000000000000015
  0
LINE
  5
6B1
  8
DEFAULT
 62
     7
 10
5187.648493341166
 20
57.19070977838832
 30
0.0000000000000015
 11
5187.566523202976
 21
57.4434062853613
 31
0.0000000000000013
  0
LINE
  5
6B2
  8
DEFAULT
 62
     7
 10
5187.566523202976
 20
57.4434062853613
 30
0.0000000000000013
 11
5187.481552047963
 21
57.67923536611512
 31
0.0000000000000011
  0
LINE
  5
6B3
  8
DEFAULT
 62
     7
 10
5187.481552047963
 20
57.67923536611512
 30
0.0000000000000011
 11
5187.437936293837
 21
57.79052047228769
 31
0.0000000000000011
  0
LINE
  5
6B4
  8
DEFAULT
 62
     7
 10
5187.437936293837
 20
57.79052047228769
 30
0.0000000000000011
 11
5187.393564531132
 21
57.89722374265887
 31
0.000000000000001
  0
LINE
  5
6B5
  8
DEFAULT
 62
     7
 10
5187.393564531132
 20
57.89722374265887
 30
0.000000000000001
 11
5187.348434841723
 21
57.9992235174798
 31
0.0000000000000009
  0
LINE
  5
6B6
  8
DEFAULT
 62
     7
 10
5187.348434841723
 20
57.9992235174798
 30
0.0000000000000009
 11
5187.302545307487
 21
58.09639813700161
 31
0.0000000000000008
  0
LINE
  5
6B7
  8
DEFAULT
 62
     7
 10
5187.302545307487
 20
58.09639813700161
 30
0.0000000000000008
 11
5187.255894010298
 21
58.18862594147544
 31
0.0000000000000007
  0
LINE
  5
6B8
  8
DEFAULT
 62
     7
 10
5187.255894010298
 20
58.18862594147544
 30
0.0000000000000007
 11
5187.208479032033
 21
58.27578527115242
 31
0.0000000000000006
  0
LINE
  5
6B9
  8
DEFAULT
 62
     7
 10
5187.208479032033
 20
58.27578527115242
 30
0.0000000000000006
 11
5187.184484563083
 21
58.31742623927056
 31
0.0000000000000006
  0
LINE
  5
6BA
  8
DEFAULT
 62
     7
 10
5187.184484563083
 20
58.31742623927056
 30
0.0000000000000006
 11
5187.160298454567
 21
58.35775446628367
 31
0.0000000000000006
  0
LINE
  5
6BB
  8
DEFAULT
 62
     7
 10
5187.160298454567
 20
58.35775446628367
 30
0.0000000000000006
 11
5187.135920466721
 21
58.39675474472313
 31
0.0000000000000005
  0
LINE
  5
6BC
  8
DEFAULT
 62
     7
 10
5187.135920466721
 20
58.39675474472313
 30
0.0000000000000005
 11
5187.111350359776
 21
58.43441186712035
 31
0.0000000000000005
  0
LINE
  5
6BD
  8
DEFAULT
 62
     7
 10
5187.111350359776
 20
58.43441186712035
 30
0.0000000000000005
 11
5187.086587893969
 21
58.47071062600669
 31
0.0000000000000005
  0
LINE
  5
6BE
  8
DEFAULT
 62
     7
 10
5187.086587893969
 20
58.47071062600669
 30
0.0000000000000005
 11
5187.061632829535
 21
58.50563581391357
 31
0.0000000000000004
  0
LINE
  5
6BF
  8
DEFAULT
 62
     7
 10
5187.061632829535
 20
58.50563581391357
 30
0.0000000000000004
 11
5187.036484926707
 21
58.53917222337236
 31
0.0000000000000004
  0
LINE
  5
6C0
  8
DEFAULT
 62
     7
 10
5187.036484926707
 20
58.53917222337236
 30
0.0000000000000004
 11
5187.01114394572
 21
58.57130464691448
 31
0.0000000000000004
  0
LINE
  5
6C1
  8
DEFAULT
 62
     7
 10
5187.01114394572
 20
58.57130464691448
 30
0.0000000000000004
 11
5186.985609646807
 21
58.60201787707129
 31
0.0000000000000003
  0
LINE
  5
6C2
  8
DEFAULT
 62
     7
 10
5186.985609646807
 20
58.60201787707129
 30
0.0000000000000003
 11
5186.959881790205
 21
58.63129670637421
 31
0.0000000000000003
  0
LINE
  5
6C3
  8
DEFAULT
 62
     7
 10
5186.959881790205
 20
58.63129670637421
 30
0.0000000000000003
 11
5186.933960136148
 21
58.65912592735461
 31
0.0000000000000003
  0
LINE
  5
6C4
  8
DEFAULT
 62
     7
 10
5186.933960136148
 20
58.65912592735461
 30
0.0000000000000003
 11
5186.907844444869
 21
58.68549033254389
 31
0.0000000000000002
  0
LINE
  5
6C5
  8
DEFAULT
 62
     7
 10
5186.907844444869
 20
58.68549033254389
 30
0.0000000000000002
 11
5186.881534476603
 21
58.71037471447345
 31
0.0000000000000002
  0
LINE
  5
6C6
  8
DEFAULT
 62
     7
 10
5186.881534476603
 20
58.71037471447345
 30
0.0000000000000002
 11
5186.868306563672
 21
58.72225714438189
 31
0.0000000000000002
  0
LINE
  5
6C7
  8
DEFAULT
 62
     7
 10
5186.868306563672
 20
58.72225714438189
 30
0.0000000000000002
 11
5186.855029991584
 21
58.73376386567466
 31
0.0000000000000002
  0
LINE
  5
6C8
  8
DEFAULT
 62
     7
 10
5186.855029991584
 20
58.73376386567466
 30
0.0000000000000002
 11
5186.841704730366
 21
58.7448929774182
 31
0.0000000000000002
  0
LINE
  5
6C9
  8
DEFAULT
 62
     7
 10
5186.841704730366
 20
58.7448929774182
 30
0.0000000000000002
 11
5186.828330750048
 21
58.75564257867892
 31
0.0000000000000002
  0
LINE
  5
6CA
  8
DEFAULT
 62
     7
 10
5186.828330750048
 20
58.75564257867892
 30
0.0000000000000002
 11
5186.814908020659
 21
58.76601076852327
 31
0.0000000000000001
  0
LINE
  5
6CB
  8
DEFAULT
 62
     7
 10
5186.814908020659
 20
58.76601076852327
 30
0.0000000000000001
 11
5186.801436512227
 21
58.77599564601763
 31
0.0000000000000001
  0
LINE
  5
6CC
  8
DEFAULT
 62
     7
 10
5186.801436512227
 20
58.77599564601763
 30
0.0000000000000001
 11
5186.787916194784
 21
58.78559531022847
 31
0.0000000000000001
  0
LINE
  5
6CD
  8
DEFAULT
 62
     7
 10
5186.787916194784
 20
58.78559531022847
 30
0.0000000000000001
 11
5186.774347038358
 21
58.79480786022219
 31
0.0000000000000001
  0
LINE
  5
6CE
  8
DEFAULT
 62
     7
 10
5186.774347038358
 20
58.79480786022219
 30
0.0000000000000001
 11
5186.760729012978
 21
58.80363139506522
 31
0.0000000000000001
  0
LINE
  5
6CF
  8
DEFAULT
 62
     7
 10
5186.760729012978
 20
58.80363139506522
 30
0.0000000000000001
 11
5186.747062088674
 21
58.81206401382398
 31
0.0000000000000001
  0
LINE
  5
6D0
  8
DEFAULT
 62
     7
 10
5186.747062088674
 20
58.81206401382398
 30
0.0000000000000001
 11
5186.733346235475
 21
58.82010381556489
 31
0.0000000000000001
  0
LINE
  5
6D1
  8
DEFAULT
 62
     7
 10
5186.733346235475
 20
58.82010381556489
 30
0.0000000000000001
 11
5186.71958142341
 21
58.82774889935438
 31
0.0000000000000001
  0
LINE
  5
6D2
  8
DEFAULT
 62
     7
 10
5186.71958142341
 20
58.82774889935438
 30
0.0000000000000001
 11
5186.705767622509
 21
58.83499736425888
 31
0.0000000000000001
  0
LINE
  5
6D3
  8
DEFAULT
 62
     7
 10
5186.705767622509
 20
58.83499736425888
 30
0.0000000000000001
 11
5186.691904802801
 21
58.8418473093448
 31
0.0000000000000001
  0
LINE
  5
6D4
  8
DEFAULT
 62
     7
 10
5186.691904802801
 20
58.8418473093448
 30
0.0000000000000001
 11
5186.677992934316
 21
58.84829683367857
 31
0.0000000000000001
  0
LINE
  5
6D5
  8
DEFAULT
 62
     7
 10
5186.677992934316
 20
58.84829683367857
 30
0.0000000000000001
 11
5186.66403198708
 21
58.85434403632662
 31
0.0
  0
LINE
  5
6D6
  8
DEFAULT
 62
     7
 10
5186.66403198708
 20
58.85434403632662
 30
0.0
 11
5186.650021931126
 21
58.85998701635537
 31
0.0
  0
LINE
  5
6D7
  8
DEFAULT
 62
     7
 10
5186.650021931126
 20
58.85998701635537
 30
0.0
 11
5186.635962736482
 21
58.86522387283124
 31
0.0
  0
LINE
  5
6D8
  8
DEFAULT
 62
     7
 10
5186.635962736482
 20
58.86522387283124
 30
0.0
 11
5186.621854373177
 21
58.87005270482066
 31
0.0
  0
LINE
  5
6D9
  8
DEFAULT
 62
     7
 10
5186.621854373177
 20
58.87005270482066
 30
0.0
 11
5186.607696811242
 21
58.87447161139005
 31
0.0
  0
LINE
  5
6DA
  8
DEFAULT
 62
     7
 10
5186.607696811242
 20
58.87447161139005
 30
0.0
 11
5186.593490020704
 21
58.87847869160584
 31
0.0
  0
LINE
  5
6DB
  8
DEFAULT
 62
     7
 10
5186.593490020704
 20
58.87847869160584
 30
0.0
 11
5186.579233971594
 21
58.88207204453445
 31
0.0
  0
LINE
  5
6DC
  8
DEFAULT
 62
     7
 10
5186.579233971594
 20
58.88207204453445
 30
0.0
 11
5186.56492863394
 21
58.8852497692423
 31
0.0
  0
LINE
  5
6DD
  8
DEFAULT
 62
     7
 10
5186.56492863394
 20
58.8852497692423
 30
0.0
 11
5186.550573977773
 21
58.88800996479581
 31
0.0
  0
LINE
  5
6DE
  8
DEFAULT
 62
     7
 10
5186.550573977773
 20
58.88800996479581
 30
0.0
 11
5186.53616997312
 21
58.89035073026142
 31
0.0
  0
LINE
  5
6DF
  8
DEFAULT
 62
     7
 10
5186.53616997312
 20
58.89035073026142
 30
0.0
 11
5186.521716590012
 21
58.89227016470554
 31
0.0
  0
LINE
  5
6E0
  8
DEFAULT
 62
     7
 10
5186.521716590012
 20
58.89227016470554
 30
0.0
 11
5186.507213798477
 21
58.89376636719459
 31
0.0
  0
LINE
  5
6E1
  8
DEFAULT
 62
     7
 10
5186.507213798477
 20
58.89376636719459
 30
0.0
 11
5186.492661568546
 21
58.89483743679502
 31
0.0
  0
LINE
  5
6E2
  8
DEFAULT
 62
     7
 10
5186.492661568546
 20
58.89483743679502
 30
0.0
 11
5186.478059870248
 21
58.89548147257322
 31
0.0
  0
LINE
  5
6E3
  8
DEFAULT
 62
     7
 10
5186.478059870248
 20
58.89548147257322
 30
0.0
 11
5186.463408673611
 21
58.89569657359565
 31
0.0
  0
LINE
  5
6E4
  8
DEFAULT
 62
     7
 10
5186.463408673611
 20
58.89569657359565
 30
0.0
 11
5186.448757476975
 21
58.89548147257322
 31
0.0
  0
LINE
  5
6E5
  8
DEFAULT
 62
     7
 10
5186.448757476975
 20
58.89548147257322
 30
0.0
 11
5186.434155778677
 21
58.89483743679502
 31
0.0
  0
LINE
  5
6E6
  8
DEFAULT
 62
     7
 10
5186.434155778677
 20
58.89483743679502
 30
0.0
 11
5186.419603548746
 21
58.89376636719459
 31
0.0
  0
LINE
  5
6E7
  8
DEFAULT
 62
     7
 10
5186.419603548746
 20
58.89376636719459
 30
0.0
 11
5186.405100757211
 21
58.89227016470554
 31
0.0
  0
LINE
  5
6E8
  8
DEFAULT
 62
     7
 10
5186.405100757211
 20
58.89227016470554
 30
0.0
 11
5186.390647374103
 21
58.89035073026142
 31
0.0
  0
LINE
  5
6E9
  8
DEFAULT
 62
     7
 10
5186.390647374103
 20
58.89035073026142
 30
0.0
 11
5186.37624336945
 21
58.88800996479581
 31
0.0
  0
LINE
  5
6EA
  8
DEFAULT
 62
     7
 10
5186.37624336945
 20
58.88800996479581
 30
0.0
 11
5186.361888713282
 21
58.8852497692423
 31
0.0
  0
LINE
  5
6EB
  8
DEFAULT
 62
     7
 10
5186.361888713282
 20
58.8852497692423
 30
0.0
 11
5186.347583375629
 21
58.88207204453445
 31
0.0
  0
LINE
  5
6EC
  8
DEFAULT
 62
     7
 10
5186.347583375629
 20
58.88207204453445
 30
0.0
 11
5186.333327326519
 21
58.87847869160584
 31
0.0
  0
LINE
  5
6ED
  8
DEFAULT
 62
     7
 10
5186.333327326519
 20
58.87847869160584
 30
0.0
 11
5186.319120535981
 21
58.87447161139005
 31
0.0
  0
LINE
  5
6EE
  8
DEFAULT
 62
     7
 10
5186.319120535981
 20
58.87447161139005
 30
0.0
 11
5186.304962974045
 21
58.87005270482066
 31
0.0
  0
LINE
  5
6EF
  8
DEFAULT
 62
     7
 10
5186.304962974045
 20
58.87005270482066
 30
0.0
 11
5186.290854610741
 21
58.86522387283124
 31
0.0
  0
LINE
  5
6F0
  8
DEFAULT
 62
     7
 10
5186.290854610741
 20
58.86522387283124
 30
0.0
 11
5186.276795416097
 21
58.85998701635537
 31
0.0
  0
LINE
  5
6F1
  8
DEFAULT
 62
     7
 10
5186.276795416097
 20
58.85998701635537
 30
0.0
 11
5186.262785360143
 21
58.85434403632662
 31
0.0
  0
LINE
  5
6F2
  8
DEFAULT
 62
     7
 10
5186.262785360143
 20
58.85434403632662
 30
0.0
 11
5186.248824412907
 21
58.84829683367857
 31
0.0000000000000001
  0
LINE
  5
6F3
  8
DEFAULT
 62
     7
 10
5186.248824412907
 20
58.84829683367857
 30
0.0000000000000001
 11
5186.234912544422
 21
58.8418473093448
 31
0.0000000000000001
  0
LINE
  5
6F4
  8
DEFAULT
 62
     7
 10
5186.234912544422
 20
58.8418473093448
 30
0.0000000000000001
 11
5186.221049724714
 21
58.83499736425888
 31
0.0000000000000001
  0
LINE
  5
6F5
  8
DEFAULT
 62
     7
 10
5186.221049724714
 20
58.83499736425888
 30
0.0000000000000001
 11
5186.207235923813
 21
58.82774889935438
 31
0.0000000000000001
  0
LINE
  5
6F6
  8
DEFAULT
 62
     7
 10
5186.207235923813
 20
58.82774889935438
 30
0.0000000000000001
 11
5186.193471111748
 21
58.82010381556489
 31
0.0000000000000001
  0
LINE
  5
6F7
  8
DEFAULT
 62
     7
 10
5186.193471111748
 20
58.82010381556489
 30
0.0000000000000001
 11
5186.179755258549
 21
58.81206401382398
 31
0.0000000000000001
  0
LINE
  5
6F8
  8
DEFAULT
 62
     7
 10
5186.179755258549
 20
58.81206401382398
 30
0.0000000000000001
 11
5186.166088334245
 21
58.80363139506522
 31
0.0000000000000001
  0
LINE
  5
6F9
  8
DEFAULT
 62
     7
 10
5186.166088334245
 20
58.80363139506522
 30
0.0000000000000001
 11
5186.152470308865
 21
58.79480786022219
 31
0.0000000000000001
  0
LINE
  5
6FA
  8
DEFAULT
 62
     7
 10
5186.152470308865
 20
58.79480786022219
 30
0.0000000000000001
 11
5186.138901152439
 21
58.78559531022847
 31
0.0000000000000001
  0
LINE
  5
6FB
  8
DEFAULT
 62
     7
 10
5186.138901152439
 20
58.78559531022847
 30
0.0000000000000001
 11
5186.125380834996
 21
58.77599564601763
 31
0.0000000000000001
  0
LINE
  5
6FC
  8
DEFAULT
 62
     7
 10
5186.125380834996
 20
58.77599564601763
 30
0.0000000000000001
 11
5186.111909326564
 21
58.76601076852327
 31
0.0000000000000001
  0
LINE
  5
6FD
  8
DEFAULT
 62
     7
 10
5186.111909326564
 20
58.76601076852327
 30
0.0000000000000001
 11
5186.098486597175
 21
58.75564257867892
 31
0.0000000000000002
  0
LINE
  5
6FE
  8
DEFAULT
 62
     7
 10
5186.098486597175
 20
58.75564257867892
 30
0.0000000000000002
 11
5186.085112616857
 21
58.7448929774182
 31
0.0000000000000002
  0
LINE
  5
6FF
  8
DEFAULT
 62
     7
 10
5186.085112616857
 20
58.7448929774182
 30
0.0000000000000002
 11
5186.071787355639
 21
58.73376386567466
 31
0.0000000000000002
  0
LINE
  5
700
  8
DEFAULT
 62
     7
 10
5186.071787355639
 20
58.73376386567466
 30
0.0000000000000002
 11
5186.05851078355
 21
58.72225714438189
 31
0.0000000000000002
  0
LINE
  5
701
  8
DEFAULT
 62
     7
 10
5186.05851078355
 20
58.72225714438189
 30
0.0000000000000002
 11
5186.04528287062
 21
58.71037471447345
 31
0.0000000000000002
  0
LINE
  5
702
  8
DEFAULT
 62
     7
 10
5186.04528287062
 20
58.71037471447345
 30
0.0000000000000002
 11
5186.018972902353
 21
58.68549033254389
 31
0.0000000000000002
  0
LINE
  5
703
  8
DEFAULT
 62
     7
 10
5186.018972902353
 20
58.68549033254389
 30
0.0000000000000002
 11
5185.992857211074
 21
58.65912592735461
 31
0.0000000000000003
  0
LINE
  5
704
  8
DEFAULT
 62
     7
 10
5185.992857211074
 20
58.65912592735461
 30
0.0000000000000003
 11
5185.966935557017
 21
58.63129670637421
 31
0.0000000000000003
  0
LINE
  5
705
  8
DEFAULT
 62
     7
 10
5185.966935557017
 20
58.63129670637421
 30
0.0000000000000003
 11
5185.941207700414
 21
58.60201787707129
 31
0.0000000000000003
  0
LINE
  5
706
  8
DEFAULT
 62
     7
 10
5185.941207700414
 20
58.60201787707129
 30
0.0000000000000003
 11
5185.915673401503
 21
58.57130464691448
 31
0.0000000000000004
  0
LINE
  5
707
  8
DEFAULT
 62
     7
 10
5185.915673401503
 20
58.57130464691448
 30
0.0000000000000004
 11
5185.890332420516
 21
58.53917222337236
 31
0.0000000000000004
  0
LINE
  5
708
  8
DEFAULT
 62
     7
 10
5185.890332420516
 20
58.53917222337236
 30
0.0000000000000004
 11
5185.865184517688
 21
58.50563581391357
 31
0.0000000000000004
  0
LINE
  5
709
  8
DEFAULT
 62
     7
 10
5185.865184517688
 20
58.50563581391357
 30
0.0000000000000004
 11
5185.840229453253
 21
58.47071062600669
 31
0.0000000000000005
  0
LINE
  5
70A
  8
DEFAULT
 62
     7
 10
5185.840229453253
 20
58.47071062600669
 30
0.0000000000000005
 11
5185.815466987446
 21
58.43441186712035
 31
0.0000000000000005
  0
LINE
  5
70B
  8
DEFAULT
 62
     7
 10
5185.815466987446
 20
58.43441186712035
 30
0.0000000000000005
 11
5185.790896880501
 21
58.39675474472313
 31
0.0000000000000005
  0
LINE
  5
70C
  8
DEFAULT
 62
     7
 10
5185.790896880501
 20
58.39675474472313
 30
0.0000000000000005
 11
5185.766518892655
 21
58.35775446628367
 31
0.0000000000000006
  0
LINE
  5
70D
  8
DEFAULT
 62
     7
 10
5185.766518892655
 20
58.35775446628367
 30
0.0000000000000006
 11
5185.742332784139
 21
58.31742623927056
 31
0.0000000000000006
  0
LINE
  5
70E
  8
DEFAULT
 62
     7
 10
5185.742332784139
 20
58.31742623927056
 30
0.0000000000000006
 11
5185.718338315188
 21
58.27578527115242
 31
0.0000000000000006
  0
LINE
  5
70F
  8
DEFAULT
 62
     7
 10
5185.718338315188
 20
58.27578527115242
 30
0.0000000000000006
 11
5185.670923336923
 21
58.18862594147544
 31
0.0000000000000007
  0
LINE
  5
710
  8
DEFAULT
 62
     7
 10
5185.670923336923
 20
58.18862594147544
 30
0.0000000000000007
 11
5185.624272039735
 21
58.09639813700161
 31
0.0000000000000008
  0
LINE
  5
711
  8
DEFAULT
 62
     7
 10
5185.624272039735
 20
58.09639813700161
 30
0.0000000000000008
 11
5185.578382505499
 21
57.9992235174798
 31
0.0000000000000009
  0
LINE
  5
712
  8
DEFAULT
 62
     7
 10
5185.578382505499
 20
57.9992235174798
 30
0.0000000000000009
 11
5185.533252816091
 21
57.89722374265887
 31
0.000000000000001
  0
LINE
  5
713
  8
DEFAULT
 62
     7
 10
5185.533252816091
 20
57.89722374265887
 30
0.000000000000001
 11
5185.488881053386
 21
57.79052047228769
 31
0.0000000000000011
  0
LINE
  5
714
  8
DEFAULT
 62
     7
 10
5185.488881053386
 20
57.79052047228769
 30
0.0000000000000011
 11
5185.44526529926
 21
57.67923536611512
 31
0.0000000000000011
  0
LINE
  5
715
  8
DEFAULT
 62
     7
 10
5185.44526529926
 20
57.67923536611512
 30
0.0000000000000011
 11
5185.360294144246
 21
57.4434062853613
 31
0.0000000000000013
  0
LINE
  5
716
  8
DEFAULT
 62
     7
 10
5185.360294144246
 20
57.4434062853613
 30
0.0000000000000013
 11
5185.278324006056
 21
57.19070977838832
 31
0.0000000000000015
  0
LINE
  5
717
  8
DEFAULT
 62
     7
 10
5185.278324006056
 20
57.19070977838832
 30
0.0000000000000015
 11
5185.199339539693
 21
56.92211912318713
 31
0.0000000000000017
  0
LINE
  5
718
  8
DEFAULT
 62
     7
 10
5185.199339539693
 20
56.92211912318713
 30
0.0000000000000017
 11
5185.123325400164
 21
56.63860759774865
 31
0.0000000000000018
  0
LINE
  5
719
  8
DEFAULT
 62
     7
 10
5185.123325400164
 20
56.63860759774865
 30
0.0000000000000018
 11
5185.050266242471
 21
56.34114848006381
 31
0.000000000000002
  0
LINE
  5
71A
  8
DEFAULT
 62
     7
 10
5185.050266242471
 20
56.34114848006381
 30
0.000000000000002
 11
5184.98014672162
 21
56.03071504812354
 31
0.0000000000000021
  0
LINE
  5
71B
  8
DEFAULT
 62
     7
 10
5184.98014672162
 20
56.03071504812354
 30
0.0000000000000021
 11
5184.848665210462
 21
55.37481835344043
 31
0.0000000000000024
  0
LINE
  5
71C
  8
DEFAULT
 62
     7
 10
5184.848665210462
 20
55.37481835344043
 30
0.0000000000000024
 11
5184.728758106728
 21
54.67870373762678
 31
0.0000000000000025
  0
LINE
  5
71D
  8
DEFAULT
 62
     7
 10
5184.728758106728
 20
54.67870373762678
 30
0.0000000000000025
 11
5184.620302650456
 21
53.95015742461
 31
0.0000000000000025
  0
LINE
  5
71E
  8
DEFAULT
 62
     7
 10
5184.620302650456
 20
53.95015742461
 30
0.0000000000000025
 11
5184.523176081683
 21
53.19696563831756
 31
0.0000000000000024
  0
LINE
  5
71F
  8
DEFAULT
 62
     7
 10
5184.523176081683
 20
53.19696563831756
 30
0.0000000000000024
 11
5184.362418566785
 21
51.64779054161538
 31
0.0000000000000016
  0
LINE
  5
720
  8
DEFAULT
 62
     7
 10
5184.362418566785
 20
51.64779054161538
 30
0.0000000000000016
 11
5184.245503482337
 21
50.09346823893976
 31
0.0
  0
LINE
  5
721
  8
DEFAULT
 62
     7
 10
5184.245503482337
 20
50.09346823893976
 30
0.0
 11
5184.16001425692
 21
48.23719361418561
 31
-0.0000000000000033
  0
LINE
  5
722
  8
DEFAULT
 62
     7
 10
5184.16001425692
 20
48.23719361418561
 30
-0.0000000000000033
 11
5184.136588612865
 21
46.43712340912388
 31
-0.0000000000000074
  0
LINE
  5
723
  8
DEFAULT
 62
     7
 10
5184.136588612865
 20
46.43712340912388
 30
-0.0000000000000074
 11
5184.172091095083
 21
44.66253691460494
 31
-0.0000000000000114
  0
LINE
  5
724
  8
DEFAULT
 62
     7
 10
5184.172091095083
 20
44.66253691460494
 30
-0.0000000000000114
 11
5184.263386248488
 21
42.8827134214791
 31
-0.0000000000000144
  0
LINE
  5
725
  8
DEFAULT
 62
     7
 10
5184.263386248488
 20
42.8827134214791
 30
-0.0000000000000144
 11
5184.40733861799
 21
41.06693222059673
 31
-0.0000000000000156
  0
LINE
  5
726
  8
DEFAULT
 62
     7
 10
5184.40733861799
 20
41.06693222059673
 30
-0.0000000000000156
 11
5184.600812748502
 21
39.18447260280815
 31
-0.0000000000000142
  0
LINE
  5
727
  8
DEFAULT
 62
     7
 10
5184.600812748502
 20
39.18447260280815
 30
-0.0000000000000142
 11
5185.97379296424
 21
28.76789127290815
 31
0.000000000000033
  0
LINE
  5
728
  8
DEFAULT
 62
     7
 10
5185.97379296424
 20
28.76789127290815
 30
0.000000000000033
 11
5186.155479510542
 21
27.07042707680169
 31
0.000000000000035
  0
LINE
  5
729
  8
DEFAULT
 62
     7
 10
5186.155479510542
 20
27.07042707680169
 30
0.000000000000035
 11
5186.304619429988
 21
25.34363735711975
 31
0.0000000000000312
  0
LINE
  5
72A
  8
DEFAULT
 62
     7
 10
5186.304619429988
 20
25.34363735711975
 30
0.0000000000000312
 11
5186.411102524487
 21
23.59591499094562
 31
0.0000000000000201
  0
LINE
  5
72B
  8
DEFAULT
 62
     7
 10
5186.411102524487
 20
23.59591499094562
 30
0.0000000000000201
 11
5186.464818595952
 21
21.83565285536256
 31
0.0
  0
LINE
  5
72C
  8
DEFAULT
 62
     7
 10
5186.464818595952
 20
21.83565285536256
 30
0.0
 11
5186.463408673611
 21
-0.3543034264043463
 31
-0.0000000000000352
  0
LINE
  5
72D
  8
DEFAULT
 10
5173.963408673612
 20
-0.3543034264043463
 30
-0.0000000000000287
 11
5198.963408673611
 21
-0.3543034264037921
 31
-0.0000000000000287
  0
LINE
  5
72E
  8
DEFAULT
 62
     3
 10
5174.714653952294
 20
16.79622147902987
 30
0.0
 11
5175.278928681983
 21
18.97444178933154
 31
0.0
  0
LINE
  5
72F
  8
DEFAULT
 62
     3
 10
5175.278928681983
 20
18.97444178933154
 30
0.0
 11
5175.843203411671
 21
16.79622147903039
 31
0.0
  0
LINE
  5
730
  8
DEFAULT
 62
     3
 10
5175.843203411671
 20
16.79622147903039
 30
0.0
 11
5176.40747814136
 21
18.97444178933161
 31
0.0
  0
LINE
  5
731
  8
DEFAULT
 62
     3
 10
5176.40747814136
 20
18.97444178933161
 30
0.0
 11
5176.971752871049
 21
16.79622147903046
 31
0.0
  0
LINE
  5
732
  8
DEFAULT
 62
     3
 10
5176.971752871049
 20
16.79622147903046
 30
0.0
 11
5177.536027600738
 21
18.97444178933213
 31
0.0
  0
LINE
  5
733
  8
DEFAULT
 62
     3
 10
5177.536027600738
 20
18.97444178933213
 30
0.0
 11
5178.100302330427
 21
16.79622147903098
 31
0.0
  0
LINE
  5
734
  8
DEFAULT
 62
     3
 10
5178.100302330427
 20
16.79622147903098
 30
0.0
 11
5178.664577060116
 21
18.9744417893322
 31
0.0
  0
LINE
  5
735
  8
DEFAULT
 62
     3
 10
5178.664577060116
 20
18.9744417893322
 30
0.0
 11
5179.228851789805
 21
16.7962214790315
 31
0.0
  0
LINE
  5
736
  8
DEFAULT
 62
     3
 10
5179.228851789805
 20
16.7962214790315
 30
0.0
 11
5179.793126519494
 21
18.97444178933272
 31
0.0
  0
LINE
  5
737
  8
DEFAULT
 62
     3
 10
5179.793126519494
 20
18.97444178933272
 30
0.0
 11
5180.357401249183
 21
16.79622147903157
 31
0.0
  0
LINE
  5
738
  8
DEFAULT
 62
     3
 10
5180.357401249183
 20
16.79622147903157
 30
0.0
 11
5180.921675978871
 21
18.97444178933324
 31
0.0
  0
LINE
  5
739
  8
DEFAULT
 62
     3
 10
5180.921675978871
 20
18.97444178933324
 30
0.0
 11
5181.48595070856
 21
16.79622147903209
 31
0.0
  0
LINE
  5
73A
  8
DEFAULT
 62
     3
 10
5181.48595070856
 20
16.79622147903209
 30
0.0
 11
5182.050225438249
 21
18.97444178933331
 31
0.0
  0
LINE
  5
73B
  8
DEFAULT
 62
     3
 10
5182.050225438249
 20
18.97444178933331
 30
0.0
 11
5182.614500167938
 21
16.79622147903261
 31
0.0
  0
LINE
  5
73C
  8
DEFAULT
 62
     3
 10
5182.614500167938
 20
16.79622147903261
 30
0.0
 11
5183.178774897627
 21
18.97444178933383
 31
0.0
  0
LINE
  5
73D
  8
DEFAULT
 62
     3
 10
5183.178774897627
 20
18.97444178933383
 30
0.0
 11
5183.743049627315
 21
16.79622147903268
 31
0.0
  0
LINE
  5
73E
  8
DEFAULT
 62
     3
 10
5183.743049627315
 20
16.79622147903268
 30
0.0
 11
5184.307324357004
 21
18.97444178933389
 31
0.0
  0
LINE
  5
73F
  8
DEFAULT
 62
     3
 10
5184.307324357004
 20
18.97444178933389
 30
0.0
 11
5184.871599086693
 21
16.7962214790332
 31
0.0
  0
LINE
  5
740
  8
DEFAULT
 62
     3
 10
5184.871599086693
 20
16.7962214790332
 30
0.0
 11
5185.435873816382
 21
18.97444178933442
 31
0.0
  0
LINE
  5
741
  8
DEFAULT
 62
     3
 10
5185.435873816382
 20
18.97444178933442
 30
0.0
 11
5186.000148546071
 21
16.79622147903326
 31
0.0
  0
LINE
  5
742
  8
DEFAULT
 62
     3
 10
5186.000148546071
 20
16.79622147903326
 30
0.0
 11
5186.56442327576
 21
18.97444178933494
 31
0.0
  0
LINE
  5
743
  8
DEFAULT
 62
     3
 10
5186.56442327576
 20
18.97444178933494
 30
0.0
 11
5187.128698005448
 21
16.79622147903379
 31
0.0
  0
LINE
  5
744
  8
DEFAULT
 62
     3
 10
5187.128698005448
 20
16.79622147903379
 30
0.0
 11
5187.692972735138
 21
18.97444178933501
 31
0.0
  0
LINE
  5
745
  8
DEFAULT
 62
     3
 10
5187.692972735138
 20
18.97444178933501
 30
0.0
 11
5188.257247464827
 21
16.79622147903431
 31
0.0
  0
LINE
  5
746
  8
DEFAULT
 62
     3
 10
5188.257247464827
 20
16.79622147903431
 30
0.0
 11
5188.821522194516
 21
18.97444178933553
 31
0.0
  0
LINE
  5
747
  8
DEFAULT
 62
     3
 10
5188.821522194516
 20
18.97444178933553
 30
0.0
 11
5189.385796924204
 21
16.79622147903438
 31
0.0
  0
LINE
  5
748
  8
DEFAULT
 62
     3
 10
5189.385796924204
 20
16.79622147903438
 30
0.0
 11
5189.950071653892
 21
18.97444178933605
 31
0.0
  0
LINE
  5
749
  8
DEFAULT
 62
     3
 10
5189.950071653892
 20
18.97444178933605
 30
0.0
 11
5190.514346383581
 21
16.7962214790349
 31
0.0
  0
LINE
  5
74A
  8
DEFAULT
 62
     3
 10
5190.514346383581
 20
16.7962214790349
 30
0.0
 11
5191.078621113271
 21
18.97444178933612
 31
0.0
  0
LINE
  5
74B
  8
DEFAULT
 62
     3
 10
5191.078621113271
 20
18.97444178933612
 30
0.0
 11
5191.64289584296
 21
16.79622147903542
 31
0.0
  0
LINE
  5
74C
  8
DEFAULT
 62
     3
 10
5191.64289584296
 20
16.79622147903542
 30
0.0
 11
5192.207170572648
 21
18.97444178933664
 31
0.0
  0
LINE
  5
74D
  8
DEFAULT
 62
     3
 10
5192.207170572648
 20
18.97444178933664
 30
0.0
 11
5192.771445302337
 21
16.79622147903548
 31
0.0
  0
LINE
  5
74E
  8
DEFAULT
 62
     3
 10
5192.771445302337
 20
16.79622147903548
 30
0.0
 11
5193.335720032026
 21
18.9744417893367
 31
0.0
  0
LINE
  5
74F
  8
DEFAULT
 62
     3
 10
5193.335720032026
 20
18.9744417893367
 30
0.0
 11
5193.899994761715
 21
16.79622147903601
 31
0.0
  0
LINE
  5
750
  8
DEFAULT
 62
     3
 10
5193.899994761715
 20
16.79622147903601
 30
0.0
 11
5194.464269491404
 21
18.97444178933723
 31
0.0
  0
LINE
  5
751
  8
DEFAULT
 62
     3
 10
5194.464269491404
 20
18.97444178933723
 30
0.0
 11
5195.028544221092
 21
16.79622147903607
 31
0.0
  0
LINE
  5
752
  8
DEFAULT
 62
     3
 10
5195.028544221092
 20
16.79622147903607
 30
0.0
 11
5195.592818950781
 21
18.97444178933775
 31
0.0
  0
LINE
  5
753
  8
DEFAULT
 62
     3
 10
5195.592818950781
 20
18.97444178933775
 30
0.0
 11
5196.15709368047
 21
16.7962214790366
 31
0.0
  0
LINE
  5
754
  8
DEFAULT
 62
     3
 10
5196.15709368047
 20
16.7962214790366
 30
0.0
 11
5196.721368410159
 21
18.97444178933781
 31
0.0
  0
LINE
  5
755
  8
DEFAULT
 62
     3
 10
5196.721368410159
 20
18.97444178933781
 30
0.0
 11
5197.285643139848
 21
16.79622147903712
 31
0.0
  0
LINE
  5
756
  8
DEFAULT
 62
     3
 10
5197.285643139848
 20
16.79622147903712
 30
0.0
 11
5197.849917869537
 21
18.97444178933834
 31
0.0
  0
LINE
  5
757
  8
DEFAULT
 62
     3
 10
5197.849917869537
 20
18.97444178933834
 30
0.0
 11
5198.414192599225
 21
16.79622147903718
 31
0.0
  0
DIMENSION
  5
758
  8
DEFAULT
 62
     1
  2
*D2
 10
5200.216643908366
 20
59.64569657359565
 30
0.0
 11
5199.456143908365
 21
39.64569657359565
 31
0.0
 70
    32
  1
40
  3
DEFAULT
 13
5187.085746005413
 23
19.64569657359565
 33
-0.0000000000000352
 14
5187.085746005413
 24
59.64569657359565
 34
-0.0000000000000352
 50
90.0
1001
ACAD
1000
DSTYLE
1002
{
1070
   287
1070
     3
1070
     5
1000

1070
   173
1070
     0
1070
   179
1070
     2
1070
    41
1040
1.0
1070
    79
1070
     1
1070
   141
1040
0.5
1070
   271
1070
     2
1070
    44
1040
0.5
1070
    42
1040
0.5
1070
   147
1040
0.25
1070
    77
1070
     1
1070
    73
1070
     0
1070
   174
1070
     0
1070
   279
1070
     0
1070
   340
1005
348
1070
   140
1040
1.0
1070
   284
1070
     1
1070
    78
1070
     1
1002
}
  0
DIMENSION
  5
765
  8
DEFAULT
 62
     1
  2
*D3
 10
5173.067700666767
 20
29.64569657359565
 30
0.0
 11
5172.307200666767
 21
24.64569657359565
 31
0.0
 70
    32
  1
10
  3
DEFAULT
 13
5183.780660470796
 23
19.64569657359565
 33
-0.0000000000000352
 14
5183.780660470796
 24
29.64569657359565
 34
-0.0000000000000352
 50
90.0
1001
ACAD
1000
DSTYLE
1002
{
1070
   287
1070
     3
1070
     5
1000

1070
   173
1070
     0
1070
   179
1070
     2
1070
    41
1040
1.0
1070
    79
1070
     1
1070
   141
1040
0.5
1070
   271
1070
     2
1070
    44
1040
0.5
1070
    42
1040
0.5
1070
   147
1040
0.25
1070
    77
1070
     1
1070
    73
1070
     0
1070
   174
1070
     0
1070
   279
1070
     0
1070
   340
1005
348
1070
   140
1040
1.0
1070
   284
1070
     1
1070
    78
1070
     1
1002
}
  0
TEXT
  5
772
  8
DEFAULT
  6
CONTINUOUS
 10
5233.496204762748
 20
-214.1510575625493
 30
0.0
 40
10.0
  1
Ty-4
  7
ARIAL_REGULAR
  0
TEXT
  5
773
  8
DEFAULT
  6
CONTINUOUS
 10
5270.777654221515
 20
-216.651742748944
 30
0.0
 40
10.0
  1
x2
  7
ARIAL_REGULAR
  0
TEXT
  5
774
  8
DEFAULT
  6
CONTINUOUS
 62
     7
 10
5313.137995936272
 20
-235.5116370060134
 30
0.0
 40
5.0
  1
330mm
  7
TIMES_NEW_ROMAN_REGULAR
  0
TEXT
  5
775
  8
DEFAULT
  6
CONTINUOUS
 10
5201.619496750513
 20
-282.8465988602317
 30
0.0
 40
10.0
  1
Ty-4
  7
ARIAL_REGULAR
  0
TEXT
  5
776
  8
DEFAULT
  6
CONTINUOUS
 10
5320.76972281707
 20
-375.4718305361425
 30
0.0
 40
10.0
  1
8mm Tube Reinforcement
  7
ARIAL_REGULAR
  0
TEXT
  5
777
  8
DEFAULT
  6
CONTINUOUS
 10
5161.964244331914
 20
-444.4494920847009
 30
0.0
 40
10.0
  1
725lb Spectra
  7
ARIAL_REGULAR
  0
TEXT
  5
778
  8
DEFAULT
  6
CONTINUOUS
 10
5163.564240099417
 20
-502.9242685708181
 30
0.0
 40
10.0
  1
Amsteel 7/64
  7
ARIAL_REGULAR
  0
TEXT
  5
779
  8
DEFAULT
  6
CONTINUOUS
 10
5373.313492535418
 20
-487.9427066063525
 30
0.0
 40
10.0
  1
50mm Elastic
  7
ARIAL_REGULAR
  0
LINE
  5
77A
  8
DEFAULT
 10
4988.008166897294
 20
-555.1657789028193
 30
0.0
 11
5641.964383247908
 21
-555.1657789028193
 31
0.0
  0
LINE
  5
77B
  8
DEFAULT
 10
5641.964383247908
 20
-555.1657789028193
 30
0.0
 11
5641.964383247908
 21
133.4430086946364
 31
0.0
  0
LINE
  5
77C
  8
DEFAULT
 10
5641.964383247908
 20
133.4430086946364
 30
0.0
 11
4988.008166897294
 21
133.4430086946364
 31
0.0
  0
LINE
  5
77D
  8
DEFAULT
 10
4988.008166897294
 20
133.4430086946364
 30
0.0
 11
4988.008166897294
 21
-555.1657789028193
 31
0.0
  0
ENDSEC
  0
EOF
